<svg xmlns="http://www.w3.org/2000/svg"><metadata/><defs><font id="DIN-Medium:1166835789" horiz-adv-x="1196"><font-face x-height="0" ascent="1000" bbox="-110 -211 1138 1000" descent="-211" font-family="DIN" font-stretch="normal" font-weight="500" panose-1="0 0 0 0 0 0 0 0 0 0" underline-position="-172" underline-thickness="70" unicode-range="U+0021-fb02" units-per-em="1000"/><glyph d="M245 712 l-22 -500 l-80 0 l-22 500 l124 0 ZM239 0 l-112 0 l0 109 l112 0 l0 -109 Z" glyph-name="exclam" unicode="!"/><glyph d="M366 521 l-101 0 l0 191 l101 0 l0 -191 ZM179 521 l-101 0 l0 191 l101 0 l0 -191 Z" glyph-name="quotedbl" unicode="&quot;"/><glyph d="M623 426 l-92 0 l-20 -124 l79 0 l0 -94 l-94 0 l-33 -208 l-106 0 l33 208 l-137 0 l-32 -208 l-107 0 l33 208 l-79 0 l0 94 l94 0 l20 124 l-81 0 l0 94 l95 0 l31 196 l107 0 l-31 -196 l136 0 l31 196 l106 0 l-31 -196 l78 0 l0 -94 ZM424 426 l-136 0 l-20 -124 l137 0 l19 124 Z" glyph-name="numbersign" unicode="#"/><glyph d="M556 203 q0 -88 -59 -142.5 q-59 -54.5 -157 -63.5 l0 -111 l-82 0 l0 108 q-141 6 -228 94 l72 71 q63 -63 165 -68 l0 222 l-26 3 q-84 10 -134 57 q-53 50 -53 136 q0 86 54.5 142 q54.5 56 149.5 65 l0 90 l82 0 l0 -89 q114 -7 191 -80 l-69 -68 q-51 48 -131 54 l0 -216 l34 -5 q89 -14 133 -53 q58 -51 58 -146 ZM267 414 l0 208 q-51 -5 -79.5 -34.5 q-28.5 -29.5 -28.5 -74.5 q0 -42 27 -66 q29 -26 81 -33 ZM449 200 q0 49 -28 74 q-5 4 -10.5 8 q-5.5 4 -10 6.5 q-4.5 2.5 -11.5 4.5 q-7 2 -10 3.5 q-3 1.5 -12 3 q-9 1.5 -11.5 2 q-2.5 0.5 -12.5 2 q-10 1.5 -12 1.5 l0 -212 q56 5 87 33 q31 28 31 74 Z" glyph-name="dollar" unicode="$"/><glyph d="M784 130 q0 -63 -40 -100 q-40 -37 -100 -37 q-60 0 -100 37 q-40 37 -40 100 l0 101 q0 63 40 100 q40 37 100 37 q60 0 100 -37 q40 -37 40 -100 l0 -101 ZM629 712 l-335 -712 l-82 0 l336 712 l81 0 ZM338 481 q0 -63 -40 -99.5 q-40 -36.5 -100 -36.5 q-60 0 -100 36.5 q-40 36.5 -40 99.5 l0 101 q0 63 40 100 q40 37 100 37 q60 0 100 -37 q40 -37 40 -100 l0 -101 ZM707 133 l0 95 q0 72 -63 72 q-63 0 -63 -72 l0 -95 q0 -72 63 -72 q63 0 63 72 ZM261 484 l0 95 q0 72 -63 72 q-63 0 -63 -72 l0 -95 q0 -71 63 -71 q63 0 63 71 Z" glyph-name="percent" unicode="%"/><glyph d="M684 0 l-131 0 l-58 70 q-87 -76 -197 -76 q-110 0 -170 57 q-60 57 -60 155 q0 67 37.5 112.5 q37.5 45.5 103.5 88.5 q-22 25 -34.5 42.5 q-12.5 17.5 -26 48.5 q-13.5 31 -13.5 62 q0 69 48 113.5 q48 44.5 126 44.5 q75 0 122 -45 q47 -45 47 -114 q0 -74 -76 -126 q-35 -24 -52 -36 l150 -179 q37 52 38 143 l98 0 q-5 -142 -71 -219 l119 -142 ZM380 558 q0 30 -20 50.5 q-20 20.5 -51 20.5 q-32 0 -51 -19.5 q-19 -19.5 -19 -50.5 q0 -34 55 -98 l34 23 q52 35 52 74 ZM434 142 l-169 201 q-32 -22 -49 -37 q-17 -15 -32 -41 q-15 -26 -15 -57 q0 -53 36.5 -87 q36.5 -34 92.5 -34 q74 0 136 55 Z" glyph-name="ampersand" unicode="&amp;"/><glyph d="M179 521 l-101 0 l0 191 l101 0 l0 -191 Z" glyph-name="quotesingle" unicode="'"/><glyph d="M259 -25 l-69 -69 q-3 3 -11.5 11.5 q-8.5 8.5 -12 12 q-3.5 3.5 -11 11 q-7.5 7.5 -11 11.5 q-3.5 4 -9.5 11 q-6 7 -9.5 12.5 q-3.5 5.5 -8 12 q-4.5 6.5 -8.5 13.5 q-23 41 -23 116 l0 478 q0 75 23 116 q4 8 8.5 14.5 q4.5 6.5 11 15 q6.5 8.5 10 12.5 q3.5 4 13 14 q9.5 10 11.5 12 q2 2 14 14 q12 12 13 13 l69 -69 q-3 -3 -13 -12.5 q-10 -9.5 -13.5 -13.5 q-3.5 -4 -10 -11 q-6.5 -7 -11 -14 q-4.5 -7 -8.5 -15 q-15 -29 -15 -82 l0 -466 q0 -53 15 -82 q4 -8 8.5 -15 q4.5 -7 11 -14 q6.5 -7 10 -11 q3.5 -4 13.5 -13.5 q10 -9.5 13 -12.5 Z" glyph-name="parenleft" unicode="("/><glyph d="M232 117 q0 -74 -24 -116 q-19 -34 -80 -95 l-70 70 q42 42 55 66 q15 28 15 81 l0 466 q0 53 -15 81 q-13 24 -55 66 l70 70 q61 -61 80 -95 q24 -42 24 -116 l0 -478 Z" glyph-name="parenright" unicode=")"/><glyph d="M424 466 l-37 -65 l-111 69 l4 -131 l-75 0 l4 131 l-111 -69 l-37 65 l115 61 l-115 62 l37 65 l111 -69 l-4 130 l75 0 l-4 -130 l111 69 l37 -65 l-115 -62 l115 -61 Z" glyph-name="asterisk" unicode="*"/><glyph d="M482 225 l-168 0 l0 -168 l-95 0 l0 168 l-168 0 l0 95 l168 0 l0 167 l95 0 l0 -167 l168 0 l0 -95 Z" glyph-name="plus" unicode="+"/><glyph d="M194 -60 l-116 -95 l0 271 l116 0 l0 -176 Z" glyph-name="comma" unicode=","/><glyph d="M359 230 l-292 0 l0 95 l292 0 l0 -95 Z" glyph-name="hyphen" unicode="-"/><glyph d="M200 0 l-122 0 l0 122 l122 0 l0 -122 Z" glyph-name="period" unicode="."/><glyph d="M383 786 l-285 -860 l-98 0 l285 860 l98 0 Z" glyph-name="slash" unicode="/"/><glyph d="M472 198 q0 -93 -59 -148.5 q-59 -55.5 -147 -55.5 q-87 0 -146 55.5 q-59 55.5 -59 148.5 l0 316 q0 93 59 148.5 q59 55.5 146 55.5 q88 0 147 -55.5 q59 -55.5 59 -148.5 l0 -316 ZM370 201 l0 310 q0 52 -28 84 q-28 32 -76 32 q-48 0 -75.5 -31.5 q-27.5 -31.5 -27.5 -84.5 l0 -310 q0 -53 27.5 -84.5 q27.5 -31.5 75.5 -31.5 q48 0 76 32 q28 32 28 84 Z" glyph-name="zero" unicode="0"/><glyph d="M355 0 l-102 0 l0 601 l-139 -122 l0 113 l139 120 l102 0 l0 -712 Z" glyph-name="one" unicode="1"/><glyph d="M477 0 l-414 0 l0 91 l274 333 q38 46 38 95 q0 49 -27.5 78.5 q-27.5 29.5 -76.5 29.5 q-45 0 -75 -27 q-30 -27 -30 -83 l-102 0 q0 90 58 145.5 q58 55.5 149 55.5 q92 0 149 -54.5 q57 -54.5 57 -145.5 q0 -44 -15.5 -76.5 q-15.5 -32.5 -51.5 -77.5 l-223 -273 l290 0 l0 -91 Z" glyph-name="two" unicode="2"/><glyph d="M478 200 q0 -99 -62 -153 q-62 -54 -156 -54 q-92 0 -153.5 50.5 q-61.5 50.5 -64.5 149.5 l102 0 q3 -54 35.5 -81 q32.5 -27 80.5 -27 q51 0 83.5 31.5 q32.5 31.5 32.5 86.5 q0 55 -30 86 q-30 31 -89 31 l-17 0 l0 89 l17 0 q54 0 81 29 q27 29 27 79 q0 52 -30 81 q-30 29 -75 29 q-46 0 -74.5 -27.5 q-28.5 -27.5 -32.5 -74.5 l-102 0 q4 89 63 141.5 q59 52.5 146 52.5 q91 0 149 -55.5 q58 -55.5 58 -143.5 q0 -108 -89 -152 q100 -44 100 -168 Z" glyph-name="three" unicode="3"/><glyph d="M498 107 l-76 0 l0 -107 l-99 0 l0 107 l-288 0 l0 95 l251 510 l110 0 l-250 -510 l177 0 l0 166 l99 0 l0 -166 l76 0 l0 -95 Z" glyph-name="four" unicode="4"/><glyph d="M479 238 q0 -65 -12 -109 q-12 -44 -48 -80 q-56 -56 -150 -56 q-97 0 -152 55 q-47 47 -54 136 l102 0 q13 -99 104 -99 q46 0 74 28 q34 34 34 125 q0 149 -104 149 q-81 0 -101 -64 l-93 0 l0 389 l384 0 l0 -91 l-292 0 l0 -188 q39 41 118 41 q82 0 128 -46 q62 -62 62 -190 Z" glyph-name="five" unicode="5"/><glyph d="M477 211 q0 -98 -58.5 -157.5 q-58.5 -59.5 -151.5 -59.5 q-94 0 -152.5 57.5 q-58.5 57.5 -58.5 155.5 q0 69 53 175 l162 330 l109 0 l-153 -306 q26 11 63 11 q79 0 133 -57 q54 -57 54 -149 ZM375 209 q0 54 -29.5 88.5 q-29.5 34.5 -79.5 34.5 q-49 0 -78.5 -33 q-29.5 -33 -29.5 -90 q0 -57 30 -90.5 q30 -33.5 78 -33.5 q49 0 79 34 q30 34 30 90 Z" glyph-name="six" unicode="6"/><glyph d="M487 621 l-238 -621 l-110 0 l239 621 l-217 0 l0 -112 l-98 0 l0 203 l424 0 l0 -91 Z" glyph-name="seven" unicode="7"/><glyph d="M486 201 q0 -94 -63 -150.5 q-63 -56.5 -157 -56.5 q-94 0 -156.5 56.5 q-62.5 56.5 -62.5 150.5 q0 108 98 167 q-86 52 -86 153 q0 88 59 142.5 q59 54.5 148 54.5 q89 0 148.5 -54.5 q59.5 -54.5 59.5 -142.5 q0 -101 -86 -153 q98 -59 98 -167 ZM342 440.5 q30 30.5 30 77.5 q0 47 -30 78 q-30 31 -76 31 q-46 0 -75.5 -31 q-29.5 -31 -29.5 -78 q0 -47 29.5 -77.5 q29.5 -30.5 75.5 -30.5 q46 0 76 30.5 ZM349 119 q34 34 34 84 q0 50 -34 84.5 q-34 34.5 -83 34.5 q-49 0 -83 -34.5 q-34 -34.5 -34 -84.5 q0 -50 34 -84 q34 -34 83 -34 q49 0 83 34 Z" glyph-name="eight" unicode="8"/><glyph d="M477 505 q0 -69 -53 -175 l-162 -330 l-109 0 l153 306 q-26 -11 -64 -11 q-79 0 -132.5 57 q-53.5 57 -53.5 149 q0 98 58.5 157.5 q58.5 59.5 151.5 59.5 q94 0 152.5 -57.5 q58.5 -57.5 58.5 -155.5 ZM375 503 q0 56 -30 90 q-30 34 -79 34 q-48 0 -78 -33.5 q-30 -33.5 -30 -90.5 q0 -54 29 -88.5 q29 -34.5 79 -34.5 q49 0 79 33 q30 33 30 90 Z" glyph-name="nine" unicode="9"/><glyph d="M225 285 l-121 0 l0 122 l121 0 l0 -122 ZM225 0 l-121 0 l0 122 l121 0 l0 -122 Z" glyph-name="colon" unicode=":"/><glyph d="M225 285 l-121 0 l0 122 l121 0 l0 -122 ZM222 -60 l-116 -95 l0 271 l116 0 l0 -176 Z" glyph-name="semicolon" unicode=";"/><glyph d="M482 327 l-431 0 l0 95 l431 0 l0 -95 ZM482 133 l-431 0 l0 95 l431 0 l0 -95 Z" glyph-name="equal" unicode="="/><glyph d="M470 527 q0 -57 -48 -123 l-77 -108 q-18 -25 -18 -54 l0 -30 l-102 0 l0 35 q0 54 34 99 l78 105 q31 41 31 76 q0 43 -27.5 71.5 q-27.5 28.5 -70.5 28.5 q-45 0 -71 -29.5 q-26 -29.5 -26 -71.5 l-102 0 q0 84 57 138 q57 54 142 54 q84 0 142 -52.5 q58 -52.5 58 -138.5 ZM332 0 l-113 0 l0 109 l113 0 l0 -109 Z" glyph-name="question" unicode="?"/><glyph d="M672 -2 l-96 2 l0 50 q-48 -57 -127 -57 q-81 0 -131 56 q-27 31 -36 71.5 q-9 40.5 -9 113.5 q0 71 8.5 112 q8.5 41 34.5 72 q47 57 132 57 q78 0 126 -56 l0 61 q0 70 -37 108 q-37 37 -106 37 l-126 0 q-68 0 -105 -37 q-37 -37 -37 -108 l0 -312 q0 -42 10.5 -64.5 q10.5 -22.5 39.5 -45.5 l-70 -70 q-45 37 -62 73.5 q-17 36.5 -17 101.5 l0 318 q0 115 59 175 q59 59 172 59 l146 0 q112 0 171 -59 q60 -60 60 -175 l0 -483 ZM552 120.5 q22 40.5 22 113.5 q0 73 -22 114 q-22 41 -80 41 q-58 0 -79.5 -40.5 q-21.5 -40.5 -21.5 -114.5 q0 -74 21.5 -114 q21.5 -40 79.5 -40 q58 0 80 40.5 Z" glyph-name="at" unicode="@"/><glyph d="M617 0 l-115 0 l-49 143 l-281 0 l-49 -143 l-115 0 l261 712 l87 0 l261 -712 ZM423 235 l-108 316 l-111 -316 l219 0 Z" glyph-name="A" unicode="a"/><glyph d="M596 201 q0 -96 -59 -148.5 q-59 -52.5 -156 -52.5 l-288 0 l0 712 l277 0 q99 0 157 -52.5 q58 -52.5 58 -142.5 q0 -54 -28.5 -94.5 q-28.5 -40.5 -67.5 -56.5 q46 -18 76.5 -60 q30.5 -42 30.5 -105 ZM445.5 437.5 q31.5 26.5 31.5 75.5 q0 49 -31.5 75.5 q-31.5 26.5 -84.5 26.5 l-160 0 l0 -204 l160 0 q53 0 84.5 26.5 ZM488 206 q0 48 -31 78 q-31 30 -86 30 l-170 0 l0 -217 l170 0 q55 0 86 30 q31 30 31 79 Z" glyph-name="B" unicode="b"/><glyph d="M577 213 q-18 -104 -86.5 -161.5 q-68.5 -57.5 -167.5 -57.5 q-111 0 -187 76 q-21 21 -34 45.5 q-13 24.5 -20.5 44.5 q-7.5 20 -10.5 58 q-3 38 -3.5 61 q-0.5 23 -0.5 77 q0 54 0.5 77 q0.5 23 3.5 61 q3 38 10.5 58 q7.5 20 20.5 44.5 q13 24.5 34 45.5 q76 76 187 76 q100 0 168 -57 q68 -57 86 -162 l-110 0 q-13 56 -50 89 q-37 33 -94 33 q-65 0 -105 -43 q-26 -29 -34.5 -72 q-8.5 -43 -8.5 -150 q0 -107 8.5 -150 q8.5 -43 34.5 -72 q40 -43 105 -43 q57 0 94.5 33 q37.5 33 50.5 89 l109 0 Z" glyph-name="C" unicode="c"/><glyph d="M599 361 q0 -126 -11 -175 q-16 -74 -61 -119 q-67 -67 -184 -67 l-250 0 l0 712 l250 0 q117 0 184 -67 q34 -34 51 -83 q17 -49 19 -83.5 q2 -34.5 2 -99.5 l0 -18 ZM491 361 q0 60 -1.5 90.5 q-1.5 30.5 -10 63.5 q-8.5 33 -26.5 52 q-44 48 -121 48 l-131 0 l0 -518 l131 0 q77 0 121 48 q25 28 31.5 76.5 q6.5 48.5 6.5 139.5 Z" glyph-name="D" unicode="d"/><glyph d="M548 0 l-455 0 l0 712 l455 0 l0 -97 l-347 0 l0 -208 l296 0 l0 -96 l-296 0 l0 -214 l347 0 l0 -97 Z" glyph-name="E" unicode="e"/><glyph d="M548 615 l-347 0 l0 -217 l296 0 l0 -97 l-296 0 l0 -301 l-108 0 l0 712 l455 0 l0 -97 Z" glyph-name="F" unicode="f"/><glyph d="M583 276 q0 -133 -64 -201 q-77 -81 -196 -81 q-111 0 -187 76 q-21 21 -34 45.5 q-13 24.5 -20.5 44.5 q-7.5 20 -10.5 58 q-3 38 -3.5 61 q-0.5 23 -0.5 77 q0 54 0.5 77 q0.5 23 3.5 61 q3 38 10.5 58 q7.5 20 20.5 44.5 q13 24.5 34 45.5 q76 76 187 76 q108 0 175.5 -62 q67.5 -62 83.5 -159 l-109 0 q-14 59 -52.5 91.5 q-38.5 32.5 -97.5 32.5 q-64 0 -105 -44 q-26 -29 -34.5 -71.5 q-8.5 -42.5 -8.5 -149.5 q0 -107 8.5 -150 q8.5 -43 34.5 -72 q40 -43 105 -43 q72 0 116 50 q36 42 36 112 l0 40 l-152 0 l0 92 l260 0 l0 -109 Z" glyph-name="G" unicode="g"/><glyph d="M598 0 l-108 0 l0 311 l-289 0 l0 -311 l-108 0 l0 712 l108 0 l0 -304 l289 0 l0 304 l108 0 l0 -712 Z" glyph-name="H" unicode="h"/><glyph d="M201 0 l-108 0 l0 712 l108 0 l0 -712 Z" glyph-name="I" unicode="i"/><glyph d="M423 225 q0 -107 -67.5 -169 q-67.5 -62 -169.5 -62 q-104 0 -173 69 l72 71 q22 -22 43.5 -32.5 q21.5 -10.5 57.5 -10.5 q61 0 95 36.5 q34 36.5 34 105.5 l0 479 l108 0 l0 -487 Z" glyph-name="J" unicode="j"/><glyph d="M648 0 l-127 0 l-200 351 l-120 -144 l0 -207 l-108 0 l0 712 l108 0 l0 -358 l291 358 l132 0 l-231 -279 l255 -433 Z" glyph-name="K" unicode="k"/><glyph d="M544 0 l-451 0 l0 712 l108 0 l0 -615 l343 0 l0 -97 Z" glyph-name="L" unicode="l"/><glyph d="M721 0 l-108 0 l0 476 l-164 -347 l-80 0 l-168 347 l0 -476 l-108 0 l0 712 l108 0 l208 -443 l204 443 l108 0 l0 -712 Z" glyph-name="M" unicode="m"/><glyph d="M629 0 l-99 0 l-329 501 l0 -501 l-108 0 l0 712 l99 0 l329 -500 l0 500 l108 0 l0 -712 Z" glyph-name="N" unicode="n"/><glyph d="M578.5 433.5 q0.5 -20.5 0.5 -77.5 q0 -57 -0.5 -77.5 q-0.5 -20.5 -3.5 -60 q-3 -39.5 -10 -59 q-7 -19.5 -20 -44 q-13 -24.5 -34 -45.5 q-76 -76 -188 -76 q-111 0 -187 76 q-21 21 -34 45.5 q-13 24.5 -20.5 44.5 q-7.5 20 -10.5 58 q-3 38 -3.5 61 q-0.5 23 -0.5 77 q0 54 0.5 77 q0.5 23 3.5 61 q3 38 10.5 58 q7.5 20 20.5 44.5 q13 24.5 34 45.5 q76 76 187 76 q112 0 188 -76 q21 -21 34 -45.5 q13 -24.5 20 -44 q7 -19.5 10 -59 q3 -39.5 3.5 -60 ZM463 205.5 q8 42.5 8 150.5 q0 108 -8 150.5 q-8 42.5 -34 70.5 q-41 44 -106 44 q-65 0 -106 -44 q-26 -28 -34 -70.5 q-8 -42.5 -8 -150.5 q0 -108 8 -150.5 q8 -42.5 34 -70.5 q41 -44 106 -44 q65 0 106 44 q26 28 34 70.5 Z" glyph-name="O" unicode="o"/><glyph d="M528.5 651 q62.5 -61 62.5 -155 q0 -94 -62.5 -155 q-62.5 -61 -165.5 -61 l-162 0 l0 -280 l-108 0 l0 712 l270 0 q103 0 165.5 -61 ZM483 496 q0 56 -34.5 87.5 q-34.5 31.5 -91.5 31.5 l-156 0 l0 -237 l156 0 q57 0 91.5 31.5 q34.5 31.5 34.5 86.5 Z" glyph-name="P" unicode="p"/><glyph d="M603 28 l-60 -60 l-71 71 q-64 -45 -149 -45 q-111 0 -187 76 q-21 21 -34 45.5 q-13 24.5 -20.5 44.5 q-7.5 20 -10.5 58 q-3 38 -3.5 61 q-0.5 23 -0.5 77 q0 54 0.5 77 q0.5 23 3.5 61 q3 38 10.5 58 q7.5 20 20.5 44.5 q13 24.5 34 45.5 q76 76 187 76 q112 0 188 -76 q21 -21 34 -45.5 q13 -24.5 20 -44 q7 -19.5 10 -59 q3 -39.5 3.5 -60 q0.5 -20.5 0.5 -77.5 q0 -78 -1.5 -111 q-1.5 -33 -12 -75.5 q-10.5 -42.5 -32.5 -72.5 l70 -69 ZM471 356 q0 108 -8 150.5 q-8 42.5 -34 70.5 q-41 44 -106 44 q-65 0 -106 -44 q-26 -28 -34 -70.5 q-8 -42.5 -8 -150.5 q0 -108 8 -150.5 q8 -42.5 34 -70.5 q41 -44 106 -44 q41 0 73 23 l-75 75 l60 60 l69 -69 q21 42 21 176 Z" glyph-name="Q" unicode="q"/><glyph d="M612 0 l-126 0 l-150 300 l-135 0 l0 -300 l-108 0 l0 712 l276 0 q100 0 160.5 -58 q60.5 -58 60.5 -150 q0 -73 -39.5 -122.5 q-39.5 -49.5 -102.5 -66.5 l164 -315 ZM449 421.5 q33 29.5 33 81.5 q0 52 -33 82 q-33 30 -88 30 l-160 0 l0 -223 l160 0 q55 0 88 29.5 Z" glyph-name="R" unicode="r"/><glyph d="M538 203 q0 -97 -71 -153 q-71 -56 -185 -56 q-82 0 -142 21.5 q-60 21.5 -110 72.5 l72 71 q68 -68 182 -68 q70 0 108.5 28.5 q38.5 28.5 38.5 80.5 q0 49 -28 74 q-24 22 -78 30 l-84 12 q-87 12 -135 57 q-52 49 -52 136 q0 94 64 151.5 q64 57.5 174 57.5 q134 0 221 -81 l-69 -68 q-58 55 -155 55 q-61 0 -95.5 -31 q-34.5 -31 -34.5 -80 q0 -42 27 -66 q28 -25 80 -33 l81 -12 q89 -14 133 -53 q58 -51 58 -146 Z" glyph-name="S" unicode="s"/><glyph d="M530 615 l-196 0 l0 -615 l-108 0 l0 615 l-196 0 l0 97 l500 0 l0 -97 Z" glyph-name="T" unicode="t"/><glyph d="M593 240 q0 -109 -73 -177.5 q-73 -68.5 -183 -68.5 q-110 0 -182.5 68.5 q-72.5 68.5 -72.5 177.5 l0 472 l108 0 l0 -467 q0 -71 40 -112.5 q40 -41.5 107 -41.5 q67 0 107.5 41.5 q40.5 41.5 40.5 112.5 l0 467 l108 0 l0 -472 Z" glyph-name="U" unicode="u"/><glyph d="M559 712 l-236 -712 l-84 0 l-234 712 l112 0 l164 -518 l164 518 l114 0 Z" glyph-name="V" unicode="v"/><glyph d="M860 712 l-186 -712 l-94 0 l-145 499 l-144 -499 l-94 0 l-186 712 l114 0 l124 -509 l143 509 l87 0 l143 -509 l124 509 l114 0 Z" glyph-name="W" unicode="w"/><glyph d="M568 0 l-125 0 l-155 273 l-154 -273 l-124 0 l220 365 l-206 347 l124 0 l140 -255 l141 255 l124 0 l-206 -347 l221 -365 Z" glyph-name="X" unicode="x"/><glyph d="M539 712 l-213 -419 l0 -293 l-108 0 l0 293 l-213 419 l118 0 l149 -313 l149 313 l118 0 Z" glyph-name="Y" unicode="y"/><glyph d="M504 0 l-456 0 l0 93 l329 522 l-315 0 l0 97 l442 0 l0 -88 l-331 -527 l331 0 l0 -97 Z" glyph-name="Z" unicode="z"/><glyph d="M304 -74 l-218 0 l0 860 l218 0 l0 -91 l-116 0 l0 -678 l116 0 l0 -91 Z" glyph-name="bracketleft" unicode="["/><glyph d="M380 -74 l-98 0 l-282 852 l98 0 l282 -852 Z" glyph-name="backslash" unicode="\"/><glyph d="M261 -74 l-218 0 l0 90 l118 0 l0 680 l-118 0 l0 90 l218 0 l0 -860 Z" glyph-name="bracketright" unicode="]"/><glyph d="M503 401 l-106 0 l-112 207 l-112 -207 l-106 0 l172 318 l93 0 l171 -318 Z" glyph-name="asciicircum" unicode="^"/><glyph d="M571 -172 l-571 0 l0 70 l571 0 l0 -70 Z" glyph-name="underscore" unicode="_"/><glyph d="M302 599 l-77 0 l-111 162 l113 0 l75 -162 Z" glyph-name="grave" unicode="`"/><glyph d="M454 0 l-100 0 l0 46 q-28 -28 -58.5 -40 q-30.5 -12 -76.5 -12 q-90 0 -136 46 q-40 42 -40 109 q0 66 45 106 q45 40 130 40 l134 0 l0 36 q0 49 -26.5 72 q-26.5 23 -84.5 23 q-42 0 -66 -11 q-24 -11 -45 -38 l-67 63 q35 41 76 57 q41 16 106 16 q209 0 209 -174 l0 -339 ZM352 183 l0 41 l-119 0 q-91 0 -91 -73 q0 -72 93 -72 q65 0 95 29 q22 22 22 75 Z" glyph-name="a" unicode="a"/><glyph d="M496 254 q0 -158 -57 -215 q-45 -45 -124 -45 q-84 0 -134 60 l0 -54 l-100 0 l0 712 l102 0 l0 -256 q48 57 133 57 q78 0 123 -45 q57 -57 57 -214 ZM390.5 189 q3.5 27 3.5 65 q0 38 -3.5 65 q-3.5 27 -14 52 q-10.5 25 -32.5 38 q-22 13 -55 13 q-44 0 -68.5 -25 q-24.5 -25 -31 -58 q-6.5 -33 -6.5 -85 q0 -38 4 -65 q4 -27 14.5 -52.5 q10.5 -25.5 32.5 -38.5 q22 -13 55 -13 q33 0 55 13 q22 13 32.5 38.5 q10.5 25.5 14 52.5 Z" glyph-name="b" unicode="b"/><glyph d="M448 66 q-68 -72 -167 -72 q-45 0 -84 14.5 q-39 14.5 -71.5 44 q-32.5 29.5 -51.5 81 q-19 51.5 -19 120.5 q0 69 19 120.5 q19 51.5 51.5 81 q32.5 29.5 71.5 43.5 q39 14 84 14 q100 0 167 -71 l-70 -68 q-24 26 -45.5 37 q-21.5 11 -51.5 11 q-60 0 -94 -45 q-30 -38 -30 -123 q0 -86 30 -124 q34 -45 94 -45 q30 0 51.5 11 q21.5 11 45.5 37 l70 -67 Z" glyph-name="c" unicode="c"/><glyph d="M472 0 l-100 0 l0 54 q-50 -60 -134 -60 q-79 0 -124 45 q-57 57 -57 215 q0 157 57 214 q45 45 123 45 q85 0 133 -57 l0 256 l102 0 l0 -712 ZM366.5 189 q3.5 27 3.5 65 q0 38 -3.5 65 q-3.5 27 -14 52 q-10.5 25 -32.5 38 q-22 13 -55 13 q-44 0 -68.5 -25 q-24.5 -25 -31 -58 q-6.5 -33 -6.5 -85 q0 -38 4 -65 q4 -27 14.5 -52.5 q10.5 -25.5 32.5 -38.5 q22 -13 55 -13 q33 0 55 13 q22 13 32.5 38.5 q10.5 25.5 14 52.5 Z" glyph-name="d" unicode="d"/><glyph d="M485 224 l-329 0 q0 -66 33.5 -104 q33.5 -38 95.5 -38 q41 0 68 12 q27 12 55 40 l65 -61 q-41 -41 -83.5 -60 q-42.5 -19 -106.5 -19 q-104 0 -166 62 q-62 62 -62 198 q0 122 58 190.5 q58 68.5 157 68.5 q100 0 157.5 -67 q57.5 -67 57.5 -177 l0 -45 ZM384 295 q-1 40 -14 69 q-27 64 -100 64 q-35 0 -62 -17.5 q-27 -17.5 -39 -46.5 q-12 -27 -13 -69 l228 0 Z" glyph-name="e" unicode="e"/><glyph d="M300 420 l-101 0 l0 -420 l-102 0 l0 420 l-58 0 l0 78 l58 0 l0 78 q0 59 36 100 q36 41 103 41 l64 0 l0 -87 l-45 0 q-56 0 -56 -59 l0 -73 l101 0 l0 -78 Z" glyph-name="f" unicode="f"/><glyph d="M468 3 q0 -95 -58.5 -154.5 q-58.5 -59.5 -158.5 -59.5 q-58 0 -98.5 15 q-40.5 15 -80.5 52 l65 65 q48 -45 110 -45 q61 0 90 36.5 q29 36.5 29 92.5 l0 65 q-49 -58 -131 -58 q-76 0 -121 45 q-34 34 -45.5 83 q-11.5 49 -11.5 123 q0 74 11.5 123 q11.5 49 45.5 83 q44 44 122 44 q83 0 133 -60 l0 54 l99 0 l0 -504 ZM362.5 203.5 q3.5 24.5 3.5 59.5 q0 35 -3.5 59.5 q-3.5 24.5 -13.5 49 q-10 24.5 -31.5 37.5 q-21.5 13 -54.5 13 q-33 0 -55 -13 q-22 -13 -32 -37.5 q-10 -24.5 -13.5 -49.5 q-3.5 -25 -3.5 -59 q0 -34 3.5 -59 q3.5 -25 13.5 -49.5 q10 -24.5 32 -37.5 q22 -13 55 -13 q33 0 54.5 13 q21.5 13 31.5 37.5 q10 24.5 13.5 49 Z" glyph-name="g" unicode="g"/><glyph d="M490 0 l-102 0 l0 311 q0 55 -28.5 83 q-28.5 28 -73.5 28 q-45 0 -74 -28.5 q-29 -28.5 -29 -82.5 l0 -311 l-102 0 l0 712 l102 0 l0 -256 q53 57 131 57 q83 0 129.5 -51 q46.5 -51 46.5 -135 l0 -327 Z" glyph-name="h" unicode="h"/><glyph d="M186 607 l-108 0 l0 108 l108 0 l0 -108 ZM183 0 l-102 0 l0 507 l102 0 l0 -507 Z" glyph-name="i" unicode="i"/><glyph d="M186 607 l-108 0 l0 108 l108 0 l0 -108 ZM183 -67 q0 -61 -35 -100.5 q-35 -39.5 -104 -39.5 l-63 0 l0 87 l45 0 q30 0 42.5 14.5 q12.5 14.5 12.5 44.5 l0 568 l102 0 l0 -574 Z" glyph-name="j" unicode="j"/><glyph d="M526 0 l-126 0 l-142 234 l-75 -85 l0 -149 l-102 0 l0 712 l102 0 l0 -439 l197 234 l124 0 l-176 -199 l198 -308 Z" glyph-name="k" unicode="k"/><glyph d="M280 0 l-63 0 q-69 0 -104 39.5 q-35 39.5 -35 100.5 l0 572 l102 0 l0 -566 q0 -30 12.5 -44.5 q12.5 -14.5 42.5 -14.5 l45 0 l0 -87 Z" glyph-name="l" unicode="l"/><glyph d="M801 0 l-102 0 l0 309 q0 57 -28.5 85 q-28.5 28 -73.5 28 q-44 0 -74.5 -28 q-30.5 -28 -30.5 -80 l0 -314 l-102 0 l0 309 q0 57 -28 85 q-28 28 -74 28 q-46 0 -75.5 -28.5 q-29.5 -28.5 -29.5 -84.5 l0 -309 l-102 0 l0 507 l100 0 l0 -51 q52 57 135 57 q96 0 144 -74 q61 74 159 74 q80 0 128 -46 q54 -53 54 -143 l0 -324 Z" glyph-name="m" unicode="m"/><glyph d="M492 0 l-102 0 l0 309 q0 57 -28 85 q-28 28 -74 28 q-46 0 -75.5 -28.5 q-29.5 -28.5 -29.5 -84.5 l0 -309 l-102 0 l0 507 l100 0 l0 -51 q53 57 135 57 q77 0 125 -46 q51 -50 51 -143 l0 -324 Z" glyph-name="n" unicode="n"/><glyph d="M480 254 q0 -70 -13 -117 q-13 -47 -47 -83 q-58 -60 -152 -60 q-93 0 -151 60 q-34 36 -47 83 q-13 47 -13 117 q0 69 13 116.5 q13 47.5 47 82.5 q58 60 151 60 q94 0 152 -60 q34 -35 47 -82.5 q13 -47.5 13 -116.5 ZM343 115 q35 35 35 139 q0 104 -35 139 q-29 29 -75 29 q-45 0 -74 -29 q-35 -35 -35 -139 q0 -104 35 -139 q30 -30 74 -30 q45 0 75 30 Z" glyph-name="o" unicode="o"/><glyph d="M496 254 q0 -158 -57 -215 q-45 -45 -123 -45 q-84 0 -133 58 l0 -257 l-102 0 l0 712 l100 0 l0 -54 q50 60 134 60 q79 0 124 -45 q57 -57 57 -214 ZM390.5 189 q3.5 27 3.5 65 q0 38 -3.5 65 q-3.5 27 -14 52 q-10.5 25 -32.5 38 q-22 13 -55 13 q-44 0 -68.5 -25 q-24.5 -25 -31 -58 q-6.5 -33 -6.5 -85 q0 -38 4 -65 q4 -27 14.5 -52.5 q10.5 -25.5 32.5 -38.5 q22 -13 55 -13 q33 0 55 13 q22 13 32.5 38.5 q10.5 25.5 14 52.5 Z" glyph-name="p" unicode="p"/><glyph d="M472 -205 l-102 0 l0 257 q-49 -58 -133 -58 q-78 0 -123 45 q-57 57 -57 215 q0 157 57 214 q45 45 124 45 q84 0 134 -60 l0 54 l100 0 l0 -712 ZM366.5 189 q3.5 27 3.5 65 q0 38 -3.5 65 q-3.5 27 -14 52 q-10.5 25 -32.5 38 q-22 13 -55 13 q-44 0 -68.5 -25 q-24.5 -25 -31 -58 q-6.5 -33 -6.5 -85 q0 -38 4 -65 q4 -27 14.5 -52.5 q10.5 -25.5 32.5 -38.5 q22 -13 55 -13 q33 0 55 13 q22 13 32.5 38.5 q10.5 25.5 14 52.5 Z" glyph-name="q" unicode="q"/><glyph d="M437 465 l-77 -77 q-34 34 -76 34 q-43 0 -72 -31.5 q-29 -31.5 -29 -82.5 l0 -308 l-102 0 l0 507 l100 0 l0 -55 q20 27 56.5 44 q36.5 17 78.5 17 q73 0 121 -48 Z" glyph-name="r" unicode="r"/><glyph d="M456 155 q0 -77 -58.5 -119 q-58.5 -42 -152.5 -42 q-139 0 -213 73 l67 67 q52 -53 146 -53 q49 0 80 18 q31 18 31 52 q0 54 -68 60 l-81 7 q-150 13 -150 140 q0 72 54.5 113.5 q54.5 41.5 136.5 41.5 q123 0 188 -57 l-64 -65 q-44 37 -125 37 q-44 0 -68 -18 q-24 -18 -24 -47 q0 -52 70 -58 l80 -7 q151 -13 151 -143 Z" glyph-name="s" unicode="s"/><glyph d="M293 0 l-61 0 q-67 0 -103 41 q-36 41 -36 100 l0 279 l-58 0 l0 78 l58 0 l0 154 l102 0 l0 -154 l98 0 l0 -78 l-98 0 l0 -274 q0 -59 56 -59 l42 0 l0 -87 Z" glyph-name="t" unicode="t"/><glyph d="M487 0 l-100 0 l0 51 q-53 -57 -135 -57 q-77 0 -125 46 q-51 50 -51 143 l0 324 l102 0 l0 -309 q0 -56 28 -84.5 q28 -28.5 74 -28.5 q46 0 75.5 28.5 q29.5 28.5 29.5 84.5 l0 309 l102 0 l0 -507 Z" glyph-name="u" unicode="u"/><glyph d="M463 507 l-186 -507 l-83 0 l-186 507 l108 0 l120 -357 l119 357 l108 0 Z" glyph-name="v" unicode="v"/><glyph d="M735 507 l-158 -507 l-87 0 l-119 354 l-118 -354 l-88 0 l-157 507 l108 0 l98 -357 l118 357 l79 0 l117 -357 l98 357 l109 0 Z" glyph-name="w" unicode="w"/><glyph d="M481 0 l-123 0 l-106 173 l-107 -173 l-123 0 l174 259 l-167 248 l123 0 l100 -165 l99 165 l123 0 l-166 -248 l173 -259 Z" glyph-name="x" unicode="x"/><glyph d="M464 507 l-224 -608 q-14 -40 -37 -63 q-37 -37 -104 -37 l-41 0 l0 92 l26 0 q32 0 47 11.5 q15 11.5 26 42.5 l28 79 l-177 483 l108 0 l121 -357 l118 357 l109 0 Z" glyph-name="y" unicode="y"/><glyph d="M421 0 l-378 0 l0 81 l252 335 l-238 0 l0 91 l364 0 l0 -81 l-254 -335 l254 0 l0 -91 Z" glyph-name="z" unicode="z"/><glyph d="M362 -74 l-71 0 q-73 0 -107 34 q-36 36 -36 105 l0 167 q0 42 -18 60 q-19 19 -48 19 l-37 0 l0 90 l37 0 q29 0 48 19 q18 18 18 60 l0 167 q0 69 36 105 q34 34 107 34 l71 0 l0 -91 l-39 0 q-45 0 -58 -14 q-15 -15 -15 -64 l0 -161 q0 -44 -17.5 -65.5 q-17.5 -21.5 -48.5 -34.5 q31 -13 48.5 -34.5 q17.5 -21.5 17.5 -65.5 l0 -161 q0 -49 15 -64 q13 -14 58 -14 l39 0 l0 -91 Z" glyph-name="braceleft" unicode="{"/><glyph d="M220 -74 l-102 0 l0 860 l102 0 l0 -860 Z" glyph-name="bar" unicode="|"/><glyph d="M362 311 l-36 0 q-30 0 -49 -19 q-18 -18 -18 -60 l0 -167 q0 -69 -36 -105 q-34 -34 -107 -34 l-71 0 l0 91 l39 0 q45 0 58 14 q15 15 15 64 l0 161 q0 44 18 65.5 q18 21.5 49 34.5 q-31 13 -49 34.5 q-18 21.5 -18 65.5 l0 161 q0 49 -15 64 q-13 14 -58 14 l-39 0 l0 91 l71 0 q73 0 107 -34 q36 -36 36 -105 l0 -167 q0 -42 18 -60 q19 -19 49 -19 l36 0 l0 -90 Z" glyph-name="braceright" unicode="}"/><glyph d="M531 280 q-44 -44 -76 -61 q-32 -17 -72 -17 q-44 0 -112 33 q-48 24 -79 24 q-23 0 -40.5 -8.5 q-17.5 -8.5 -44.5 -35.5 l-64 64 q44 44 75.5 61 q31.5 17 71.5 17 q43 0 111 -33 q48 -24 80 -24 q23 0 40.5 8.5 q17.5 8.5 44.5 35.5 l65 -64 Z" glyph-name="asciitilde" unicode="~"/><glyph d="M205 398 l-112 0 l0 109 l112 0 l0 -109 ZM211 -205 l-124 0 l22 500 l80 0 l22 -500 Z" glyph-name="exclamdown" unicode="¡"/><glyph d="M459 184 q-60 -64 -141 -74 l0 -110 l-80 0 l0 111 q-83 14 -133 80 q-50 66 -50 175 q0 109 50 175 q50 66 133 80 l0 91 l80 0 l0 -90 q81 -10 141 -74 l-68 -66 q-37 41 -82 48 l0 -328 q45 7 82 48 l68 -66 ZM247 204 l0 324 q-34 -7 -58 -39 q-32 -44 -32 -123 q0 -80 31 -123 q24 -32 59 -39 Z" glyph-name="cent" unicode="¢"/><glyph d="M516 0 l-411 0 l0 313 l-62 0 l0 78 l62 0 l0 96 q0 107 68 169 q68 62 170 62 q104 0 173 -69 l-72 -71 q-22 22 -43.5 32.5 q-21.5 10.5 -57.5 10.5 q-61 0 -95 -36.5 q-34 -36.5 -34 -105.5 l0 -88 l129 0 l0 -78 l-129 0 l0 -216 l302 0 l0 -97 Z" glyph-name="sterling" unicode="£"/><glyph d="M597 81 l-67 -67 l-74 74 q-55 -38 -124 -38 q-69 0 -124 38 l-73 -74 l-67 67 l73 74 q-38 55 -38 124 q0 69 38 124 l-73 73 l67 67 l73 -73 q54 37 124 37 q70 0 124 -37 l74 73 l67 -67 l-74 -73 q38 -55 38 -124 q0 -69 -38 -124 l74 -74 ZM428 183 q40 40 40 96 q0 56 -40 95.5 q-40 39.5 -96 39.5 q-56 0 -96 -39.5 q-40 -39.5 -40 -95.5 q0 -56 40 -96 q40 -40 96 -40 q56 0 96 40 Z" glyph-name="currency" unicode="¤"/><glyph d="M538 712 l-146 -290 l87 0 l0 -78 l-127 0 l-26 -51 l0 -52 l153 0 l0 -78 l-153 0 l0 -163 l-108 0 l0 163 l-153 0 l0 78 l153 0 l0 52 l-26 51 l-127 0 l0 78 l87 0 l-147 290 l118 0 l150 -314 l148 314 l117 0 Z" glyph-name="yen" unicode="¥"/><glyph d="M220 436 l-102 0 l0 350 l102 0 l0 -350 ZM220 -74 l-102 0 l0 350 l102 0 l0 -350 Z" glyph-name="brokenbar" unicode="¦"/><glyph d="M472 264 q0 -54 -29 -95 q-29 -41 -68 -61 q88 -39 88 -141 q0 -82 -55.5 -130 q-55.5 -48 -135.5 -48 q-80 0 -135.5 43.5 q-55.5 43.5 -58.5 126.5 l100 0 q3 -37 27.5 -58 q24.5 -21 66.5 -21 q43 0 67 22.5 q24 22.5 24 61.5 q0 64 -78 88 l-70 21 q-141 43 -141 186 q0 54 29 95 q29 41 68 61 q-84 41 -84 134 q0 72 50 120.5 q50 48.5 136 48.5 q86 0 136 -45.5 q50 -45.5 52 -119.5 l-98 0 q-6 76 -90 76 q-42 0 -65 -20 q-23 -20 -23 -57 q0 -58 75 -81 l70 -21 q142 -43 142 -186 ZM372 261 q0 52 -29 80 q-30 28 -70 28 q-45 0 -71 -28 q-28 -30 -28 -80 q0 -49 28 -79 q26 -28 71 -28 q44 0 70 28 q29 31 29 79 Z" glyph-name="section" unicode="§"/><glyph d="M404 604 l-92 0 l0 108 l92 0 l0 -108 ZM188 604 l-92 0 l0 108 l92 0 l0 -108 Z" glyph-name="dieresis" unicode="¨"/><glyph d="M687 612 q106 -106 106 -256 q0 -150 -106 -256 q-106 -106 -256 -106 q-150 0 -256 106 q-106 106 -106 256 q0 150 106 256 q106 106 256 106 q150 0 256 -106 ZM636 147 q84 85 84 209 q0 124 -84 209 q-84 85 -205 85 q-121 0 -205 -85 q-84 -85 -84 -209 q0 -124 84 -209 q84 -85 205 -85 q121 0 205 85 ZM568 208 q-58 -52 -131 -52 q-81 0 -130 54.5 q-49 54.5 -49 145.5 q0 91 49 145.5 q49 54.5 130 54.5 q71 0 131 -52 l-46 -47 q-40 35 -85 35 q-55 0 -81.5 -37 q-26.5 -37 -26.5 -99 q0 -62 26.5 -99 q26.5 -37 81.5 -37 q45 0 85 35 l46 -47 Z" glyph-name="copyright" unicode="©"/><glyph d="M379 307 l-81 0 l0 36 q-40 -40 -106 -40 q-72 0 -108 36 q-32 32 -32 87 q0 53 36 85 q36 32 103 32 l105 0 l0 28 q0 38 -20.5 56 q-20.5 18 -66.5 18 q-33 0 -51 -8.5 q-18 -8.5 -36 -30.5 l-55 52 q28 33 61 45.5 q33 12.5 85 12.5 q166 0 166 -139 l0 -270 ZM296 453 l0 32 l-93 0 q-70 0 -70 -57 q0 -55 71 -55 q53 0 75 22 q17 16 17 58 Z" glyph-name="ordfeminine" unicode="ª"/><glyph d="M520 42 l-230 230 l230 229 l0 -123 l-108 -106 l108 -107 l0 -123 ZM267 42 l-230 230 l230 229 l0 -123 l-107 -106 l107 -107 l0 -123 Z" glyph-name="guillemotleft" unicode="«"/><glyph d="M484 98 l-95 0 l0 141 l-341 0 l0 95 l436 0 l0 -236 Z" glyph-name="logicalnot" unicode="¬"/><glyph d="M687 612 q106 -106 106 -256 q0 -150 -106 -256 q-106 -106 -256 -106 q-150 0 -256 106 q-106 106 -106 256 q0 150 106 256 q106 106 256 106 q150 0 256 -106 ZM636 146.5 q84 85.5 84 209.5 q0 124 -84 209.5 q-84 85.5 -205 85.5 q-122 0 -206 -85.5 q-84 -85.5 -84 -209.5 q0 -124 84 -209.5 q84 -85.5 206 -85.5 q121 0 205 85.5 ZM588 161 l-81 0 l-80 155 l-50 0 l0 -155 l-72 0 l0 391 l147 0 q55 0 90.5 -35 q35.5 -35 35.5 -85 q0 -39 -21.5 -66.5 q-21.5 -27.5 -55.5 -39.5 l87 -165 ZM489 390 q18 17 18 42 q0 25 -18 42 q-18 17 -46 17 l-66 0 l0 -118 l66 0 q28 0 46 17 Z" glyph-name="registered" unicode="®"/><glyph d="M405 622 l-310 0 l0 73 l310 0 l0 -73 Z" glyph-name="macron" unicode="¯"/><glyph d="M358.5 672.5 q51.5 -51.5 51.5 -123.5 q0 -72 -51.5 -123 q-51.5 -51 -123.5 -51 q-72 0 -123 51 q-51 51 -51 123 q0 72 51 123.5 q51 51.5 123 51.5 q72 0 123.5 -51.5 ZM299.5 483.5 q26.5 26.5 26.5 65.5 q0 39 -26.5 66 q-26.5 27 -64.5 27 q-38 0 -64 -27 q-26 -27 -26 -66 q0 -39 26 -65.5 q26 -26.5 64 -26.5 q38 0 64.5 26.5 Z" glyph-name="degree" unicode="°"/><glyph d="M482 316 l-168 0 l0 -169 l-95 0 l0 169 l-168 0 l0 95 l168 0 l0 168 l95 0 l0 -168 l168 0 l0 -95 ZM482 0 l-431 0 l0 95 l431 0 l0 -95 Z" glyph-name="plusminus" unicode="±"/><glyph d="M305 285 l-260 0 l0 69 l161 186 q22 26 22 52 q0 25 -14 40 q-14 15 -39 15 q-53 0 -53 -55 l-77 0 q0 57 36.5 90.5 q36.5 33.5 93.5 33.5 q57 0 93.5 -33.5 q36.5 -33.5 36.5 -90.5 q0 -28 -10.5 -48.5 q-10.5 -20.5 -35.5 -49.5 l-121 -140 l167 0 l0 -69 Z" glyph-name="twosuperior" unicode="²"/><glyph d="M317 408 q0 -61 -38.5 -94.5 q-38.5 -33.5 -96.5 -33.5 q-57 0 -96.5 31.5 q-39.5 31.5 -40.5 94.5 l77 0 q1 -28 18 -42.5 q17 -14.5 42 -14.5 q26 0 42 16 q16 16 16 45 q0 28 -16 44 q-16 16 -45 16 l-11 0 l0 66 l11 0 q27 0 41.5 15.5 q14.5 15.5 14.5 39.5 q0 27 -15.5 41.5 q-15.5 14.5 -38.5 14.5 q-23 0 -38 -13.5 q-15 -13.5 -16 -38.5 l-76 0 q1 56 38 88.5 q37 32.5 92 32.5 q57 0 93.5 -34 q36.5 -34 36.5 -88 q0 -63 -50 -89 q56 -29 56 -97 Z" glyph-name="threesuperior" unicode="³"/><glyph d="M386 761 l-111 -162 l-77 0 l75 162 l113 0 Z" glyph-name="acute" unicode="´"/><glyph d="M487 0 l-100 0 l0 51 q-53 -57 -134 -57 q-45 0 -75 25 l0 -224 l-102 0 l0 712 l102 0 l0 -309 q0 -56 28.5 -84.5 q28.5 -28.5 74.5 -28.5 q46 0 75 28.5 q29 28.5 29 84.5 l0 309 l102 0 l0 -507 Z" glyph-name="mu" unicode="µ"/><glyph d="M544 -205 l-102 0 l0 820 l-108 0 l0 -820 l-102 0 l0 522 q-81 0 -137.5 58 q-56.5 58 -56.5 138 q0 90 61.5 144.5 q61.5 54.5 163.5 54.5 l281 0 l0 -917 Z" glyph-name="paragraph" unicode="¶"/><glyph d="M200 217 l-122 0 l0 122 l122 0 l0 -122 Z" glyph-name="periodcentered" unicode="·"/><glyph d="M319 -64 l-51 -147 l-101 0 l70 147 l82 0 Z" glyph-name="cedilla" unicode="¸"/><glyph d="M204 285 l-77 0 l0 341 l-87 -76 l0 87 l87 75 l77 0 l0 -427 Z" glyph-name="onesuperior" unicode="¹"/><glyph d="M398 510 q0 -110 -48 -159 q-46 -48 -121 -48 q-74 0 -120 48 q-48 49 -48 159 q0 109 48 158 q46 48 120 48 q75 0 121 -48 q48 -49 48 -158 ZM314 510 q0 83 -26 109 q-23 23 -59 23 q-35 0 -58 -23 q-27 -27 -27 -109 q0 -83 27 -110 q23 -23 58 -23 q36 0 59 23 q26 26 26 110 Z" glyph-name="ordmasculine" unicode="º"/><glyph d="M556 272 l-231 -230 l0 123 l107 107 l-107 106 l0 123 l231 -229 ZM303 272 l-231 -230 l0 123 l108 107 l-108 106 l0 123 l231 -229 Z" glyph-name="guillemotright" unicode="»"/><glyph d="M768 61 l-40 0 l0 -61 l-74 0 l0 61 l-174 0 l0 71 l147 295 l83 0 l-147 -295 l91 0 l0 83 l74 0 l0 -83 l40 0 l0 -71 ZM596 712 l-335 -712 l-81 0 l335 712 l81 0 ZM204 285 l-77 0 l0 341 l-87 -76 l0 87 l87 75 l77 0 l0 -427 Z" glyph-name="onequarter" unicode="¼"/><glyph d="M782 0 l-259 0 l0 69 l160 186 q22 26 22 52 q0 25 -14 40 q-14 15 -39 15 q-53 0 -53 -55 l-76 0 q0 57 36 90.5 q36 33.5 93 33.5 q57 0 93.5 -33.5 q36.5 -33.5 36.5 -90.5 q0 -28 -10.5 -48.5 q-10.5 -20.5 -35.5 -49.5 l-121 -140 l167 0 l0 -69 ZM588 712 l-335 -712 l-81 0 l335 712 l81 0 ZM204 285 l-77 0 l0 341 l-87 -76 l0 87 l87 75 l77 0 l0 -427 Z" glyph-name="onehalf" unicode="½"/><glyph d="M804 61 l-40 0 l0 -61 l-73 0 l0 61 l-174 0 l0 71 l146 295 l84 0 l-147 -295 l91 0 l0 83 l73 0 l0 -83 l40 0 l0 -71 ZM638 712 l-335 -712 l-81 0 l335 712 l81 0 ZM317 408 q0 -61 -38.5 -94.5 q-38.5 -33.5 -96.5 -33.5 q-57 0 -96.5 31.5 q-39.5 31.5 -40.5 94.5 l77 0 q1 -28 18 -42.5 q17 -14.5 42 -14.5 q26 0 42 16 q16 16 16 45 q0 28 -16 44 q-16 16 -45 16 l-11 0 l0 66 l11 0 q27 0 41.5 15.5 q14.5 15.5 14.5 39.5 q0 27 -15.5 41.5 q-15.5 14.5 -38.5 14.5 q-23 0 -38 -13.5 q-15 -13.5 -16 -38.5 l-76 0 q1 56 38 88.5 q37 32.5 92 32.5 q57 0 93.5 -34 q36.5 -34 36.5 -88 q0 -63 -50 -89 q56 -29 56 -97 Z" glyph-name="threequarters" unicode="¾"/><glyph d="M291 398 l-112 0 l0 109 l112 0 l0 -109 ZM440 -19 q0 -84 -57 -138 q-57 -54 -143 -54 q-84 0 -141.5 53 q-57.5 53 -57.5 139 q0 59 47 123 l78 108 q18 25 18 54 l0 30 l102 0 l0 -36 q0 -52 -35 -99 l-77 -105 q-31 -41 -31 -76 q0 -43 27 -71 q27 -28 70 -28 q45 0 71.5 29 q26.5 29 26.5 71 l102 0 Z" glyph-name="questiondown" unicode="¿"/><glyph d="M617 0 l-115 0 l-49 143 l-281 0 l-49 -143 l-115 0 l261 712 l87 0 l261 -712 ZM423 235 l-108 316 l-111 -316 l219 0 ZM361 781 l-77 0 l-111 162 l113 0 l75 -162 Z" glyph-name="Agrave" unicode="à"/><glyph d="M617 0 l-115 0 l-49 143 l-281 0 l-49 -143 l-115 0 l261 712 l87 0 l261 -712 ZM423 235 l-108 316 l-111 -316 l219 0 ZM446 943 l-111 -162 l-77 0 l75 162 l113 0 Z" glyph-name="Aacute" unicode="á"/><glyph d="M617 0 l-115 0 l-49 143 l-281 0 l-49 -143 l-115 0 l261 712 l87 0 l261 -712 ZM423 235 l-108 316 l-111 -316 l219 0 ZM482 781 l-85 0 l-87 97 l-87 -97 l-85 0 l129 161 l86 0 l129 -161 Z" glyph-name="Acircumflex" unicode="â"/><glyph d="M617 0 l-115 0 l-49 143 l-281 0 l-49 -143 l-115 0 l261 712 l87 0 l261 -712 ZM423 235 l-108 316 l-111 -316 l219 0 ZM478 849 q-55 -55 -104 -55 q-35 0 -75 23 q-33 19 -56 19 q-28 0 -58 -30 l-48 47 q55 55 104 55 q35 0 75 -24 q32 -19 55 -19 q28 0 59 31 l48 -47 Z" glyph-name="Atilde" unicode="ã"/><glyph d="M617 0 l-115 0 l-49 143 l-281 0 l-49 -143 l-115 0 l261 712 l87 0 l261 -712 ZM423 235 l-108 316 l-111 -316 l219 0 ZM464 786 l-92 0 l0 108 l92 0 l0 -108 ZM248 786 l-92 0 l0 108 l92 0 l0 -108 Z" glyph-name="Adieresis" unicode="ä"/><glyph d="M617 0 l-115 0 l-49 143 l-281 0 l-49 -143 l-115 0 l261 712 l87 0 l261 -712 ZM423 235 l-108 316 l-111 -316 l219 0 ZM398.5 963.5 q36.5 -36.5 36.5 -88.5 q0 -52 -36.5 -88.5 q-36.5 -36.5 -88.5 -36.5 q-52 0 -88.5 36.5 q-36.5 36.5 -36.5 88.5 q0 52 36.5 88.5 q36.5 36.5 88.5 36.5 q52 0 88.5 -36.5 ZM355 830.5 q19 18.5 19 44.5 q0 26 -19 44.5 q-19 18.5 -45 18.5 q-26 0 -45 -18.5 q-19 -18.5 -19 -44.5 q0 -26 19 -44.5 q19 -18.5 45 -18.5 q26 0 45 18.5 Z" glyph-name="Aring" unicode="å"/><glyph d="M897 0 l-455 0 l0 162 l-235 0 l-84 -162 l-118 0 l374 712 l518 0 l0 -97 l-347 0 l0 -209 l296 0 l0 -97 l-296 0 l0 -212 l347 0 l0 -97 ZM442 254 l0 361 l-188 -361 l188 0 Z" glyph-name="AE" unicode="æ"/><glyph d="M577 213 q-18 -104 -86.5 -161.5 q-68.5 -57.5 -167.5 -57.5 q-111 0 -187 76 q-21 21 -34 45.5 q-13 24.5 -20.5 44.5 q-7.5 20 -10.5 58 q-3 38 -3.5 61 q-0.5 23 -0.5 77 q0 54 0.5 77 q0.5 23 3.5 61 q3 38 10.5 58 q7.5 20 20.5 44.5 q13 24.5 34 45.5 q76 76 187 76 q100 0 168 -57 q68 -57 86 -162 l-110 0 q-13 56 -50 89 q-37 33 -94 33 q-65 0 -105 -43 q-26 -29 -34.5 -72 q-8.5 -43 -8.5 -150 q0 -107 8.5 -150 q8.5 -43 34.5 -72 q40 -43 105 -43 q57 0 94.5 33 q37.5 33 50.5 89 l109 0 ZM374 -64 l-51 -147 l-101 0 l70 147 l82 0 Z" glyph-name="Ccedilla" unicode="ç"/><glyph d="M548 0 l-455 0 l0 712 l455 0 l0 -97 l-347 0 l0 -208 l296 0 l0 -96 l-296 0 l0 -214 l347 0 l0 -97 ZM363 781 l-77 0 l-111 162 l113 0 l75 -162 Z" glyph-name="Egrave" unicode="è"/><glyph d="M548 0 l-455 0 l0 712 l455 0 l0 -97 l-347 0 l0 -208 l296 0 l0 -96 l-296 0 l0 -214 l347 0 l0 -97 ZM447 943 l-111 -162 l-77 0 l75 162 l113 0 Z" glyph-name="Eacute" unicode="é"/><glyph d="M548 0 l-455 0 l0 712 l455 0 l0 -97 l-347 0 l0 -208 l296 0 l0 -96 l-296 0 l0 -214 l347 0 l0 -97 ZM483 781 l-85 0 l-87 97 l-87 -97 l-85 0 l129 161 l86 0 l129 -161 Z" glyph-name="Ecircumflex" unicode="ê"/><glyph d="M548 0 l-455 0 l0 712 l455 0 l0 -97 l-347 0 l0 -208 l296 0 l0 -96 l-296 0 l0 -214 l347 0 l0 -97 ZM465 786 l-92 0 l0 108 l92 0 l0 -108 ZM249 786 l-92 0 l0 108 l92 0 l0 -108 Z" glyph-name="Edieresis" unicode="ë"/><glyph d="M201 0 l-108 0 l0 712 l108 0 l0 -712 ZM281 781 l-77 0 l-111 162 l113 0 l75 -162 Z" glyph-name="Igrave" unicode="ì"/><glyph d="M201 0 l-108 0 l0 712 l108 0 l0 -712 ZM281 943 l-111 -162 l-77 0 l75 162 l113 0 Z" glyph-name="Iacute" unicode="í"/><glyph d="M201 0 l-108 0 l0 712 l108 0 l0 -712 ZM437 781 l-85 0 l-87 97 l-87 -97 l-85 0 l129 161 l86 0 l129 -161 Z" glyph-name="Icircumflex" unicode="î"/><glyph d="M201 0 l-108 0 l0 712 l108 0 l0 -712 ZM401 786 l-92 0 l0 108 l92 0 l0 -108 ZM185 786 l-92 0 l0 108 l92 0 l0 -108 Z" glyph-name="Idieresis" unicode="ï"/><glyph d="M617 356 q0 -120 -8.5 -168.5 q-8.5 -48.5 -45.5 -93.5 q-76 -94 -204 -94 l-247 0 l0 318 l-74 0 l0 83 l74 0 l0 311 l250 0 q127 0 201 -95 q38 -49 46 -96 q8 -47 8 -165 ZM509 353 q0 100 -5.5 136.5 q-5.5 36.5 -25.5 64.5 q-45 62 -129 62 l-129 0 l0 -215 l138 0 l0 -83 l-138 0 l0 -222 l129 0 q90 0 133 63 q18 27 22.5 60 q4.5 33 4.5 134 Z" glyph-name="Eth" unicode="ð"/><glyph d="M629 0 l-99 0 l-329 501 l0 -501 l-108 0 l0 712 l99 0 l329 -500 l0 500 l108 0 l0 -712 ZM530 849 q-55 -55 -104 -55 q-35 0 -75 23 q-33 19 -56 19 q-28 0 -58 -30 l-48 47 q55 55 104 55 q35 0 75 -24 q32 -19 55 -19 q28 0 59 31 l48 -47 Z" glyph-name="Ntilde" unicode="ñ"/><glyph d="M578.5 433.5 q0.5 -20.5 0.5 -77.5 q0 -57 -0.5 -77.5 q-0.5 -20.5 -3.5 -60 q-3 -39.5 -10 -59 q-7 -19.5 -20 -44 q-13 -24.5 -34 -45.5 q-76 -76 -188 -76 q-111 0 -187 76 q-21 21 -34 45.5 q-13 24.5 -20.5 44.5 q-7.5 20 -10.5 58 q-3 38 -3.5 61 q-0.5 23 -0.5 77 q0 54 0.5 77 q0.5 23 3.5 61 q3 38 10.5 58 q7.5 20 20.5 44.5 q13 24.5 34 45.5 q76 76 187 76 q112 0 188 -76 q21 -21 34 -45.5 q13 -24.5 20 -44 q7 -19.5 10 -59 q3 -39.5 3.5 -60 ZM463 205.5 q8 42.5 8 150.5 q0 108 -8 150.5 q-8 42.5 -34 70.5 q-41 44 -106 44 q-65 0 -106 -44 q-26 -28 -34 -70.5 q-8 -42.5 -8 -150.5 q0 -108 8 -150.5 q8 -42.5 34 -70.5 q41 -44 106 -44 q65 0 106 44 q26 28 34 70.5 ZM375 781 l-77 0 l-111 162 l113 0 l75 -162 Z" glyph-name="Ograve" unicode="ò"/><glyph d="M578.5 433.5 q0.5 -20.5 0.5 -77.5 q0 -57 -0.5 -77.5 q-0.5 -20.5 -3.5 -60 q-3 -39.5 -10 -59 q-7 -19.5 -20 -44 q-13 -24.5 -34 -45.5 q-76 -76 -188 -76 q-111 0 -187 76 q-21 21 -34 45.5 q-13 24.5 -20.5 44.5 q-7.5 20 -10.5 58 q-3 38 -3.5 61 q-0.5 23 -0.5 77 q0 54 0.5 77 q0.5 23 3.5 61 q3 38 10.5 58 q7.5 20 20.5 44.5 q13 24.5 34 45.5 q76 76 187 76 q112 0 188 -76 q21 -21 34 -45.5 q13 -24.5 20 -44 q7 -19.5 10 -59 q3 -39.5 3.5 -60 ZM463 205.5 q8 42.5 8 150.5 q0 108 -8 150.5 q-8 42.5 -34 70.5 q-41 44 -106 44 q-65 0 -106 -44 q-26 -28 -34 -70.5 q-8 -42.5 -8 -150.5 q0 -108 8 -150.5 q8 -42.5 34 -70.5 q41 -44 106 -44 q65 0 106 44 q26 28 34 70.5 ZM459 943 l-111 -162 l-77 0 l75 162 l113 0 Z" glyph-name="Oacute" unicode="ó"/><glyph d="M578.5 433.5 q0.5 -20.5 0.5 -77.5 q0 -57 -0.5 -77.5 q-0.5 -20.5 -3.5 -60 q-3 -39.5 -10 -59 q-7 -19.5 -20 -44 q-13 -24.5 -34 -45.5 q-76 -76 -188 -76 q-111 0 -187 76 q-21 21 -34 45.5 q-13 24.5 -20.5 44.5 q-7.5 20 -10.5 58 q-3 38 -3.5 61 q-0.5 23 -0.5 77 q0 54 0.5 77 q0.5 23 3.5 61 q3 38 10.5 58 q7.5 20 20.5 44.5 q13 24.5 34 45.5 q76 76 187 76 q112 0 188 -76 q21 -21 34 -45.5 q13 -24.5 20 -44 q7 -19.5 10 -59 q3 -39.5 3.5 -60 ZM463 205.5 q8 42.5 8 150.5 q0 108 -8 150.5 q-8 42.5 -34 70.5 q-41 44 -106 44 q-65 0 -106 -44 q-26 -28 -34 -70.5 q-8 -42.5 -8 -150.5 q0 -108 8 -150.5 q8 -42.5 34 -70.5 q41 -44 106 -44 q65 0 106 44 q26 28 34 70.5 ZM495 781 l-85 0 l-87 97 l-87 -97 l-85 0 l129 161 l86 0 l129 -161 Z" glyph-name="Ocircumflex" unicode="ô"/><glyph d="M578.5 433.5 q0.5 -20.5 0.5 -77.5 q0 -57 -0.5 -77.5 q-0.5 -20.5 -3.5 -60 q-3 -39.5 -10 -59 q-7 -19.5 -20 -44 q-13 -24.5 -34 -45.5 q-76 -76 -188 -76 q-111 0 -187 76 q-21 21 -34 45.5 q-13 24.5 -20.5 44.5 q-7.5 20 -10.5 58 q-3 38 -3.5 61 q-0.5 23 -0.5 77 q0 54 0.5 77 q0.5 23 3.5 61 q3 38 10.5 58 q7.5 20 20.5 44.5 q13 24.5 34 45.5 q76 76 187 76 q112 0 188 -76 q21 -21 34 -45.5 q13 -24.5 20 -44 q7 -19.5 10 -59 q3 -39.5 3.5 -60 ZM463 205.5 q8 42.5 8 150.5 q0 108 -8 150.5 q-8 42.5 -34 70.5 q-41 44 -106 44 q-65 0 -106 -44 q-26 -28 -34 -70.5 q-8 -42.5 -8 -150.5 q0 -108 8 -150.5 q8 -42.5 34 -70.5 q41 -44 106 -44 q65 0 106 44 q26 28 34 70.5 ZM492 849 q-55 -55 -104 -55 q-35 0 -75 23 q-33 19 -56 19 q-28 0 -58 -30 l-48 47 q55 55 104 55 q35 0 75 -24 q32 -19 55 -19 q28 0 59 31 l48 -47 Z" glyph-name="Otilde" unicode="õ"/><glyph d="M578.5 433.5 q0.5 -20.5 0.5 -77.5 q0 -57 -0.5 -77.5 q-0.5 -20.5 -3.5 -60 q-3 -39.5 -10 -59 q-7 -19.5 -20 -44 q-13 -24.5 -34 -45.5 q-76 -76 -188 -76 q-111 0 -187 76 q-21 21 -34 45.5 q-13 24.5 -20.5 44.5 q-7.5 20 -10.5 58 q-3 38 -3.5 61 q-0.5 23 -0.5 77 q0 54 0.5 77 q0.5 23 3.5 61 q3 38 10.5 58 q7.5 20 20.5 44.5 q13 24.5 34 45.5 q76 76 187 76 q112 0 188 -76 q21 -21 34 -45.5 q13 -24.5 20 -44 q7 -19.5 10 -59 q3 -39.5 3.5 -60 ZM463 205.5 q8 42.5 8 150.5 q0 108 -8 150.5 q-8 42.5 -34 70.5 q-41 44 -106 44 q-65 0 -106 -44 q-26 -28 -34 -70.5 q-8 -42.5 -8 -150.5 q0 -108 8 -150.5 q8 -42.5 34 -70.5 q41 -44 106 -44 q65 0 106 44 q26 28 34 70.5 ZM477 786 l-92 0 l0 108 l92 0 l0 -108 ZM261 786 l-92 0 l0 108 l92 0 l0 -108 Z" glyph-name="Odieresis" unicode="ö"/><glyph d="M476 132 l-64 -63 l-146 145 l-145 -145 l-64 63 l146 146 l-146 146 l64 64 l145 -146 l146 146 l64 -64 l-146 -146 l146 -146 Z" glyph-name="multiply" unicode="×"/><glyph d="M578.5 433.5 q0.5 -20.5 0.5 -77.5 q0 -57 -0.5 -77.5 q-0.5 -20.5 -3.5 -60 q-3 -39.5 -10 -59 q-7 -19.5 -20 -44 q-13 -24.5 -34 -45.5 q-76 -76 -188 -76 q-63 0 -119 27 l-31 -65 l-82 0 l51 108 l-6 6 q-21 21 -34 45.5 q-13 24.5 -20.5 44.5 q-7.5 20 -10.5 58 q-3 38 -3.5 61 q-0.5 23 -0.5 77 q0 54 0.5 77 q0.5 23 3.5 61 q3 38 10.5 58 q7.5 20 20.5 44.5 q13 24.5 34 45.5 q76 76 187 76 q64 0 120 -27 l30 65 l83 0 l-52 -108 q1 -1 3.5 -3 q2.5 -2 3.5 -3 q21 -21 34 -45.5 q13 -24.5 20 -44 q7 -19.5 10 -59 q3 -39.5 3.5 -60 ZM403 599 q-36 22 -80 22 q-64 0 -105 -44 q-26 -28 -34 -70.5 q-8 -42.5 -8 -150.5 q0 -148 20 -190 l207 433 ZM471 356 q0 150 -20 190 l-207 -433 q35 -22 79 -22 q65 0 106 44 q26 28 34 70.5 q8 42.5 8 150.5 Z" glyph-name="Oslash" unicode="ø"/><glyph d="M593 240 q0 -109 -73 -177.5 q-73 -68.5 -183 -68.5 q-110 0 -182.5 68.5 q-72.5 68.5 -72.5 177.5 l0 472 l108 0 l0 -467 q0 -71 40 -112.5 q40 -41.5 107 -41.5 q67 0 107.5 41.5 q40.5 41.5 40.5 112.5 l0 467 l108 0 l0 -472 ZM390 781 l-77 0 l-111 162 l113 0 l75 -162 Z" glyph-name="Ugrave" unicode="ù"/><glyph d="M593 240 q0 -109 -73 -177.5 q-73 -68.5 -183 -68.5 q-110 0 -182.5 68.5 q-72.5 68.5 -72.5 177.5 l0 472 l108 0 l0 -467 q0 -71 40 -112.5 q40 -41.5 107 -41.5 q67 0 107.5 41.5 q40.5 41.5 40.5 112.5 l0 467 l108 0 l0 -472 ZM474 943 l-111 -162 l-77 0 l75 162 l113 0 Z" glyph-name="Uacute" unicode="ú"/><glyph d="M593 240 q0 -109 -73 -177.5 q-73 -68.5 -183 -68.5 q-110 0 -182.5 68.5 q-72.5 68.5 -72.5 177.5 l0 472 l108 0 l0 -467 q0 -71 40 -112.5 q40 -41.5 107 -41.5 q67 0 107.5 41.5 q40.5 41.5 40.5 112.5 l0 467 l108 0 l0 -472 ZM510 781 l-85 0 l-87 97 l-87 -97 l-85 0 l129 161 l86 0 l129 -161 Z" glyph-name="Ucircumflex" unicode="û"/><glyph d="M593 240 q0 -109 -73 -177.5 q-73 -68.5 -183 -68.5 q-110 0 -182.5 68.5 q-72.5 68.5 -72.5 177.5 l0 472 l108 0 l0 -467 q0 -71 40 -112.5 q40 -41.5 107 -41.5 q67 0 107.5 41.5 q40.5 41.5 40.5 112.5 l0 467 l108 0 l0 -472 ZM492 786 l-92 0 l0 108 l92 0 l0 -108 ZM276 786 l-92 0 l0 108 l92 0 l0 -108 Z" glyph-name="Udieresis" unicode="ü"/><glyph d="M539 712 l-213 -419 l0 -293 l-108 0 l0 293 l-213 419 l118 0 l149 -313 l149 313 l118 0 ZM408 943 l-111 -162 l-77 0 l75 162 l113 0 Z" glyph-name="Yacute" unicode="ý"/><glyph d="M528.5 514 q62.5 -61 62.5 -155 q0 -94 -62.5 -154.5 q-62.5 -60.5 -165.5 -60.5 l-162 0 l0 -144 l-108 0 l0 712 l108 0 l0 -137 l162 0 q103 0 165.5 -61 ZM482 359 q0 56 -34.5 87.5 q-34.5 31.5 -91.5 31.5 l-155 0 l0 -237 l155 0 q57 0 91.5 31.5 q34.5 31.5 34.5 86.5 Z" glyph-name="Thorn" unicode="þ"/><glyph d="M501 152 q0 -75 -41 -113 q-42 -39 -114 -39 l-53 0 l0 87 l32 0 q32 0 52 17 q21 17 21 57 l0 156 q0 36 -18 53 q-19 19 -52 19 l-35 0 l0 81 l31 0 q33 0 53.5 19.5 q20.5 19.5 20.5 55.5 q0 37 -25 60 q-25 24 -81 24 q-108 0 -108 -113 l0 -516 l-103 0 l0 522 q0 96 58 146.5 q58 50.5 156 50.5 q92 0 148.5 -43 q56.5 -43 56.5 -128 q0 -76 -62 -116 q33 -17 48 -42.5 q15 -25.5 15 -72.5 l0 -165 Z" glyph-name="germandbls" unicode="ß"/><glyph d="M454 0 l-100 0 l0 46 q-28 -28 -58.5 -40 q-30.5 -12 -76.5 -12 q-90 0 -136 46 q-40 42 -40 109 q0 66 45 106 q45 40 130 40 l134 0 l0 36 q0 49 -26.5 72 q-26.5 23 -84.5 23 q-42 0 -66 -11 q-24 -11 -45 -38 l-67 63 q35 41 76 57 q41 16 106 16 q209 0 209 -174 l0 -339 ZM352 183 l0 41 l-119 0 q-91 0 -91 -73 q0 -72 93 -72 q65 0 95 29 q22 22 22 75 ZM309 599 l-77 0 l-111 162 l113 0 l75 -162 Z" glyph-name="agrave" unicode="à"/><glyph d="M454 0 l-100 0 l0 46 q-28 -28 -58.5 -40 q-30.5 -12 -76.5 -12 q-90 0 -136 46 q-40 42 -40 109 q0 66 45 106 q45 40 130 40 l134 0 l0 36 q0 49 -26.5 72 q-26.5 23 -84.5 23 q-42 0 -66 -11 q-24 -11 -45 -38 l-67 63 q35 41 76 57 q41 16 106 16 q209 0 209 -174 l0 -339 ZM352 183 l0 41 l-119 0 q-91 0 -91 -73 q0 -72 93 -72 q65 0 95 29 q22 22 22 75 ZM393 761 l-111 -162 l-77 0 l75 162 l113 0 Z" glyph-name="aacute" unicode="á"/><glyph d="M454 0 l-100 0 l0 46 q-28 -28 -58.5 -40 q-30.5 -12 -76.5 -12 q-90 0 -136 46 q-40 42 -40 109 q0 66 45 106 q45 40 130 40 l134 0 l0 36 q0 49 -26.5 72 q-26.5 23 -84.5 23 q-42 0 -66 -11 q-24 -11 -45 -38 l-67 63 q35 41 76 57 q41 16 106 16 q209 0 209 -174 l0 -339 ZM352 183 l0 41 l-119 0 q-91 0 -91 -73 q0 -72 93 -72 q65 0 95 29 q22 22 22 75 ZM429 599 l-85 0 l-87 97 l-87 -97 l-85 0 l129 161 l86 0 l129 -161 Z" glyph-name="acircumflex" unicode="â"/><glyph d="M454 0 l-100 0 l0 46 q-28 -28 -58.5 -40 q-30.5 -12 -76.5 -12 q-90 0 -136 46 q-40 42 -40 109 q0 66 45 106 q45 40 130 40 l134 0 l0 36 q0 49 -26.5 72 q-26.5 23 -84.5 23 q-42 0 -66 -11 q-24 -11 -45 -38 l-67 63 q35 41 76 57 q41 16 106 16 q209 0 209 -174 l0 -339 ZM352 183 l0 41 l-119 0 q-91 0 -91 -73 q0 -72 93 -72 q65 0 95 29 q22 22 22 75 ZM426 667 q-55 -55 -104 -55 q-35 0 -75 23 q-33 19 -56 19 q-28 0 -58 -30 l-48 47 q55 55 104 55 q34 0 75 -24 q32 -19 55 -19 q28 0 59 31 l48 -47 Z" glyph-name="atilde" unicode="ã"/><glyph d="M454 0 l-100 0 l0 46 q-28 -28 -58.5 -40 q-30.5 -12 -76.5 -12 q-90 0 -136 46 q-40 42 -40 109 q0 66 45 106 q45 40 130 40 l134 0 l0 36 q0 49 -26.5 72 q-26.5 23 -84.5 23 q-42 0 -66 -11 q-24 -11 -45 -38 l-67 63 q35 41 76 57 q41 16 106 16 q209 0 209 -174 l0 -339 ZM352 183 l0 41 l-119 0 q-91 0 -91 -73 q0 -72 93 -72 q65 0 95 29 q22 22 22 75 ZM411 604 l-92 0 l0 108 l92 0 l0 -108 ZM195 604 l-92 0 l0 108 l92 0 l0 -108 Z" glyph-name="adieresis" unicode="ä"/><glyph d="M454 0 l-100 0 l0 46 q-28 -28 -58.5 -40 q-30.5 -12 -76.5 -12 q-90 0 -136 46 q-40 42 -40 109 q0 66 45 106 q45 40 130 40 l134 0 l0 36 q0 49 -26.5 72 q-26.5 23 -84.5 23 q-42 0 -66 -11 q-24 -11 -45 -38 l-67 63 q35 41 76 57 q41 16 106 16 q209 0 209 -174 l0 -339 ZM352 183 l0 41 l-119 0 q-91 0 -91 -73 q0 -72 93 -72 q65 0 95 29 q22 22 22 75 ZM345.5 789.5 q36.5 -36.5 36.5 -88.5 q0 -52 -36.5 -88.5 q-36.5 -36.5 -88.5 -36.5 q-52 0 -88.5 36.5 q-36.5 36.5 -36.5 88.5 q0 52 36.5 88.5 q36.5 36.5 88.5 36.5 q52 0 88.5 -36.5 ZM302 656.5 q19 18.5 19 44.5 q0 26 -19 44.5 q-19 18.5 -45 18.5 q-26 0 -45 -18.5 q-19 -18.5 -19 -44.5 q0 -26 19 -44.5 q19 -18.5 45 -18.5 q26 0 45 18.5 Z" glyph-name="aring" unicode="å"/><glyph d="M782 224 l-329 0 q0 -66 33.5 -104 q33.5 -38 95.5 -38 q41 0 68 12 q27 12 55 40 l65 -61 q-41 -41 -83.5 -60 q-42.5 -19 -106.5 -19 q-120 0 -179 79 q-37 -45 -78.5 -62 q-41.5 -17 -103.5 -17 q-90 0 -136 46 q-40 42 -40 109 q0 66 45 106 q45 40 130 40 l134 0 l0 36 q0 49 -26.5 72 q-26.5 23 -84.5 23 q-42 0 -66 -11 q-24 -11 -45 -38 l-67 63 q35 41 76 57 q41 16 106 16 q125 0 172 -67 q55 67 150 67 q100 0 157.5 -67 q57.5 -67 57.5 -177 l0 -45 ZM681 295 q-1 42 -13 69 q-12 29 -39 46.5 q-27 17.5 -62 17.5 q-73 0 -100 -64 q-13 -29 -14 -69 l228 0 ZM352 183 l0 41 l-119 0 q-91 0 -91 -73 q0 -72 93 -72 q65 0 95 29 q22 22 22 75 Z" glyph-name="ae" unicode="æ"/><glyph d="M448 66 q-68 -72 -167 -72 q-45 0 -84 14.5 q-39 14.5 -71.5 44 q-32.5 29.5 -51.5 81 q-19 51.5 -19 120.5 q0 69 19 120.5 q19 51.5 51.5 81 q32.5 29.5 71.5 43.5 q39 14 84 14 q100 0 167 -71 l-70 -68 q-24 26 -45.5 37 q-21.5 11 -51.5 11 q-60 0 -94 -45 q-30 -38 -30 -123 q0 -86 30 -124 q34 -45 94 -45 q30 0 51.5 11 q21.5 11 45.5 37 l70 -67 ZM319 -64 l-51 -147 l-101 0 l70 147 l82 0 Z" glyph-name="ccedilla" unicode="ç"/><glyph d="M485 224 l-329 0 q0 -66 33.5 -104 q33.5 -38 95.5 -38 q41 0 68 12 q27 12 55 40 l65 -61 q-41 -41 -83.5 -60 q-42.5 -19 -106.5 -19 q-104 0 -166 62 q-62 62 -62 198 q0 122 58 190.5 q58 68.5 157 68.5 q100 0 157.5 -67 q57.5 -67 57.5 -177 l0 -45 ZM384 295 q-1 40 -14 69 q-27 64 -100 64 q-35 0 -62 -17.5 q-27 -17.5 -39 -46.5 q-12 -27 -13 -69 l228 0 ZM325 599 l-77 0 l-111 162 l113 0 l75 -162 Z" glyph-name="egrave" unicode="è"/><glyph d="M485 224 l-329 0 q0 -66 33.5 -104 q33.5 -38 95.5 -38 q41 0 68 12 q27 12 55 40 l65 -61 q-41 -41 -83.5 -60 q-42.5 -19 -106.5 -19 q-104 0 -166 62 q-62 62 -62 198 q0 122 58 190.5 q58 68.5 157 68.5 q100 0 157.5 -67 q57.5 -67 57.5 -177 l0 -45 ZM384 295 q-1 40 -14 69 q-27 64 -100 64 q-35 0 -62 -17.5 q-27 -17.5 -39 -46.5 q-12 -27 -13 -69 l228 0 ZM409 761 l-111 -162 l-77 0 l75 162 l113 0 Z" glyph-name="eacute" unicode="é"/><glyph d="M485 224 l-329 0 q0 -66 33.5 -104 q33.5 -38 95.5 -38 q41 0 68 12 q27 12 55 40 l65 -61 q-41 -41 -83.5 -60 q-42.5 -19 -106.5 -19 q-104 0 -166 62 q-62 62 -62 198 q0 122 58 190.5 q58 68.5 157 68.5 q100 0 157.5 -67 q57.5 -67 57.5 -177 l0 -45 ZM384 295 q-1 40 -14 69 q-27 64 -100 64 q-35 0 -62 -17.5 q-27 -17.5 -39 -46.5 q-12 -27 -13 -69 l228 0 ZM445 599 l-85 0 l-87 97 l-87 -97 l-85 0 l129 161 l86 0 l129 -161 Z" glyph-name="ecircumflex" unicode="ê"/><glyph d="M485 224 l-329 0 q0 -66 33.5 -104 q33.5 -38 95.5 -38 q41 0 68 12 q27 12 55 40 l65 -61 q-41 -41 -83.5 -60 q-42.5 -19 -106.5 -19 q-104 0 -166 62 q-62 62 -62 198 q0 122 58 190.5 q58 68.5 157 68.5 q100 0 157.5 -67 q57.5 -67 57.5 -177 l0 -45 ZM384 295 q-1 40 -14 69 q-27 64 -100 64 q-35 0 -62 -17.5 q-27 -17.5 -39 -46.5 q-12 -27 -13 -69 l228 0 ZM427 604 l-92 0 l0 108 l92 0 l0 -108 ZM211 604 l-92 0 l0 108 l92 0 l0 -108 Z" glyph-name="edieresis" unicode="ë"/><glyph d="M183 0 l-102 0 l0 507 l102 0 l0 -507 ZM269 599 l-77 0 l-111 162 l113 0 l75 -162 Z" glyph-name="igrave" unicode="ì"/><glyph d="M183 0 l-102 0 l0 507 l102 0 l0 -507 ZM269 761 l-111 -162 l-77 0 l75 162 l113 0 Z" glyph-name="iacute" unicode="í"/><glyph d="M183 0 l-102 0 l0 507 l102 0 l0 -507 ZM425 599 l-85 0 l-87 97 l-87 -97 l-85 0 l129 161 l86 0 l129 -161 Z" glyph-name="icircumflex" unicode="î"/><glyph d="M183 0 l-102 0 l0 507 l102 0 l0 -507 ZM389 604 l-92 0 l0 108 l92 0 l0 -108 ZM173 604 l-92 0 l0 108 l92 0 l0 -108 Z" glyph-name="idieresis" unicode="ï"/><glyph d="M476 249 q0 -69 -12.5 -115 q-12.5 -46 -46.5 -81 q-56 -59 -149 -59 q-92 0 -148 59 q-34 35 -46.5 81 q-12.5 46 -12.5 115 q0 69 12.5 115 q12.5 46 46.5 81 q39 40 104 51 q41 7 76 -2 l-45 81 l-116 0 l0 72 l78 0 l-39 70 l108 0 l39 -70 l87 0 l0 -72 l-50 0 l51 -94 q38 -70 50.5 -116 q12.5 -46 12.5 -116 ZM341 114 q33 34 33 135 q0 101 -33 135 q-29 29 -73 29 q-43 0 -72 -29 q-33 -34 -33 -135 q0 -101 33 -135 q29 -29 72 -29 q44 0 73 29 Z" glyph-name="eth" unicode="ð"/><glyph d="M492 0 l-102 0 l0 309 q0 57 -28 85 q-28 28 -74 28 q-46 0 -75.5 -28.5 q-29.5 -28.5 -29.5 -84.5 l0 -309 l-102 0 l0 507 l100 0 l0 -51 q53 57 135 57 q77 0 125 -46 q51 -50 51 -143 l0 -324 ZM456 667 q-55 -55 -104 -55 q-35 0 -75 23 q-33 19 -56 19 q-28 0 -58 -30 l-48 47 q55 55 104 55 q34 0 75 -24 q32 -19 55 -19 q28 0 59 31 l48 -47 Z" glyph-name="ntilde" unicode="ñ"/><glyph d="M480 254 q0 -70 -13 -117 q-13 -47 -47 -83 q-58 -60 -152 -60 q-93 0 -151 60 q-34 36 -47 83 q-13 47 -13 117 q0 69 13 116.5 q13 47.5 47 82.5 q58 60 151 60 q94 0 152 -60 q34 -35 47 -82.5 q13 -47.5 13 -116.5 ZM343 115 q35 35 35 139 q0 104 -35 139 q-29 29 -75 29 q-45 0 -74 -29 q-35 -35 -35 -139 q0 -104 35 -139 q30 -30 74 -30 q45 0 75 30 ZM313 599 l-77 0 l-111 162 l113 0 l75 -162 Z" glyph-name="ograve" unicode="ò"/><glyph d="M480 254 q0 -70 -13 -117 q-13 -47 -47 -83 q-58 -60 -152 -60 q-93 0 -151 60 q-34 36 -47 83 q-13 47 -13 117 q0 69 13 116.5 q13 47.5 47 82.5 q58 60 151 60 q94 0 152 -60 q34 -35 47 -82.5 q13 -47.5 13 -116.5 ZM343 115 q35 35 35 139 q0 104 -35 139 q-29 29 -75 29 q-45 0 -74 -29 q-35 -35 -35 -139 q0 -104 35 -139 q30 -30 74 -30 q45 0 75 30 ZM404 761 l-111 -162 l-77 0 l75 162 l113 0 Z" glyph-name="oacute" unicode="ó"/><glyph d="M480 254 q0 -70 -13 -117 q-13 -47 -47 -83 q-58 -60 -152 -60 q-93 0 -151 60 q-34 36 -47 83 q-13 47 -13 117 q0 69 13 116.5 q13 47.5 47 82.5 q58 60 151 60 q94 0 152 -60 q34 -35 47 -82.5 q13 -47.5 13 -116.5 ZM343 115 q35 35 35 139 q0 104 -35 139 q-29 29 -75 29 q-45 0 -74 -29 q-35 -35 -35 -139 q0 -104 35 -139 q30 -30 74 -30 q45 0 75 30 ZM440 599 l-85 0 l-87 97 l-87 -97 l-85 0 l129 161 l86 0 l129 -161 Z" glyph-name="ocircumflex" unicode="ô"/><glyph d="M480 254 q0 -70 -13 -117 q-13 -47 -47 -83 q-58 -60 -152 -60 q-93 0 -151 60 q-34 36 -47 83 q-13 47 -13 117 q0 69 13 116.5 q13 47.5 47 82.5 q58 60 151 60 q94 0 152 -60 q34 -35 47 -82.5 q13 -47.5 13 -116.5 ZM343 115 q35 35 35 139 q0 104 -35 139 q-29 29 -75 29 q-45 0 -74 -29 q-35 -35 -35 -139 q0 -104 35 -139 q30 -30 74 -30 q45 0 75 30 ZM437 667 q-55 -55 -104 -55 q-35 0 -75 23 q-33 19 -56 19 q-28 0 -58 -30 l-48 47 q55 55 104 55 q34 0 75 -24 q32 -19 55 -19 q28 0 59 31 l48 -47 Z" glyph-name="otilde" unicode="õ"/><glyph d="M480 254 q0 -70 -13 -117 q-13 -47 -47 -83 q-58 -60 -152 -60 q-93 0 -151 60 q-34 36 -47 83 q-13 47 -13 117 q0 69 13 116.5 q13 47.5 47 82.5 q58 60 151 60 q94 0 152 -60 q34 -35 47 -82.5 q13 -47.5 13 -116.5 ZM343 115 q35 35 35 139 q0 104 -35 139 q-29 29 -75 29 q-45 0 -74 -29 q-35 -35 -35 -139 q0 -104 35 -139 q30 -30 74 -30 q45 0 75 30 ZM422 604 l-92 0 l0 108 l92 0 l0 -108 ZM206 604 l-92 0 l0 108 l92 0 l0 -108 Z" glyph-name="odieresis" unicode="ö"/><glyph d="M321 414 l-109 0 l0 109 l109 0 l0 -109 ZM484 230 l-436 0 l0 95 l436 0 l0 -95 ZM321 33 l-109 0 l0 109 l109 0 l0 -109 Z" glyph-name="divide" unicode="÷"/><glyph d="M480 254 q0 -70 -13 -117 q-13 -47 -47 -83 q-58 -60 -152 -60 q-57 0 -104 25 l-37 -63 l-69 0 l58 99 q-34 35 -46.5 82.5 q-12.5 47.5 -12.5 116.5 q0 69 13 116.5 q13 47.5 47 82.5 q58 60 151 60 q58 0 105 -25 l37 63 l69 0 l-59 -98 q34 -35 47 -82.5 q13 -47.5 13 -116.5 ZM328 405 q-26 17 -60 17 q-45 0 -74 -29 q-35 -35 -35 -139 q0 -74 15 -109 l154 260 ZM378 254 q0 74 -15 109 l-154 -260 q26 -18 59 -18 q45 0 75 30 q35 35 35 139 Z" glyph-name="oslash" unicode="ø"/><glyph d="M487 0 l-100 0 l0 51 q-53 -57 -135 -57 q-77 0 -125 46 q-51 50 -51 143 l0 324 l102 0 l0 -309 q0 -56 28 -84.5 q28 -28.5 74 -28.5 q46 0 75.5 28.5 q29.5 28.5 29.5 84.5 l0 309 l102 0 l0 -507 ZM333 599 l-77 0 l-111 162 l113 0 l75 -162 Z" glyph-name="ugrave" unicode="ù"/><glyph d="M487 0 l-100 0 l0 51 q-53 -57 -135 -57 q-77 0 -125 46 q-51 50 -51 143 l0 324 l102 0 l0 -309 q0 -56 28 -84.5 q28 -28.5 74 -28.5 q46 0 75.5 28.5 q29.5 28.5 29.5 84.5 l0 309 l102 0 l0 -507 ZM417 761 l-111 -162 l-77 0 l75 162 l113 0 Z" glyph-name="uacute" unicode="ú"/><glyph d="M487 0 l-100 0 l0 51 q-53 -57 -135 -57 q-77 0 -125 46 q-51 50 -51 143 l0 324 l102 0 l0 -309 q0 -56 28 -84.5 q28 -28.5 74 -28.5 q46 0 75.5 28.5 q29.5 28.5 29.5 84.5 l0 309 l102 0 l0 -507 ZM453 599 l-85 0 l-87 97 l-87 -97 l-85 0 l129 161 l86 0 l129 -161 Z" glyph-name="ucircumflex" unicode="û"/><glyph d="M487 0 l-100 0 l0 51 q-53 -57 -135 -57 q-77 0 -125 46 q-51 50 -51 143 l0 324 l102 0 l0 -309 q0 -56 28 -84.5 q28 -28.5 74 -28.5 q46 0 75.5 28.5 q29.5 28.5 29.5 84.5 l0 309 l102 0 l0 -507 ZM435 604 l-92 0 l0 108 l92 0 l0 -108 ZM219 604 l-92 0 l0 108 l92 0 l0 -108 Z" glyph-name="udieresis" unicode="ü"/><glyph d="M464 507 l-224 -608 q-14 -40 -37 -63 q-37 -37 -104 -37 l-41 0 l0 92 l26 0 q32 0 47 11.5 q15 11.5 26 42.5 l28 79 l-177 483 l108 0 l121 -357 l118 357 l109 0 ZM370 761 l-111 -162 l-77 0 l75 162 l113 0 Z" glyph-name="yacute" unicode="ý"/><glyph d="M496 254 q0 -158 -57 -215 q-45 -45 -123 -45 q-84 0 -133 58 l0 -257 l-102 0 l0 917 l102 0 l0 -256 q48 57 133 57 q78 0 123 -45 q57 -57 57 -214 ZM390.5 189 q3.5 27 3.5 65 q0 38 -3.5 65 q-3.5 27 -14 52 q-10.5 25 -32.5 38 q-22 13 -55 13 q-44 0 -68.5 -25 q-24.5 -25 -31 -58 q-6.5 -33 -6.5 -85 q0 -38 4 -65 q4 -27 14.5 -52.5 q10.5 -25.5 32.5 -38.5 q22 -13 55 -13 q33 0 55 13 q22 13 32.5 38.5 q10.5 25.5 14 52.5 Z" glyph-name="thorn" unicode="þ"/><glyph d="M464 507 l-224 -608 q-14 -40 -37 -63 q-37 -37 -104 -37 l-41 0 l0 92 l26 0 q32 0 47 11.5 q15 11.5 26 42.5 l28 79 l-177 483 l108 0 l121 -357 l118 357 l109 0 ZM388 604 l-92 0 l0 108 l92 0 l0 -108 ZM172 604 l-92 0 l0 108 l92 0 l0 -108 Z" glyph-name="ydieresis" unicode="ÿ"/><glyph d="M183 0 l-102 0 l0 507 l102 0 l0 -507 Z" glyph-name="dotlessi" unicode="ı"/><glyph d="M557 0 l-450 0 l0 266 l-69 -44 l0 93 l69 43 l0 354 l108 0 l0 -286 l141 89 l0 -91 l-141 -89 l0 -238 l342 0 l0 -97 Z" glyph-name="Lslash" unicode="Ł"/><glyph d="M294 0 l-63 0 q-69 0 -104 39.5 q-35 39.5 -35 100.5 l0 181 l-59 -36 l0 87 l59 36 l0 304 l102 0 l0 -242 l70 43 l0 -86 l-70 -44 l0 -237 q0 -30 12.5 -44.5 q12.5 -14.5 42.5 -14.5 l45 0 l0 -87 Z" glyph-name="lslash" unicode="ł"/><glyph d="M922 0 l-451 0 l0 58 q-55 -64 -150 -64 q-111 0 -185 74 q-47 47 -58 106 q-11 59 -11 182 q0 65 1 95.5 q1 30.5 7.5 71.5 q6.5 41 21 68.5 q14.5 27.5 39.5 52.5 q74 74 185 74 q95 0 150 -64 l0 58 l450 0 l0 -96 l-342 0 l0 -210 l291 0 l0 -94 l-291 0 l0 -216 l343 0 l0 -96 ZM463 205.5 q8 42.5 8 150.5 q0 108 -8 150.5 q-8 42.5 -34 70.5 q-41 44 -106 44 q-64 0 -105 -44 q-26 -28 -34 -70.5 q-8 -42.5 -8 -150.5 q0 -108 8 -150.5 q8 -42.5 34 -70.5 q41 -44 105 -44 q65 0 106 44 q26 28 34 70.5 Z" glyph-name="OE" unicode="Œ"/><glyph d="M807 224 l-329 0 q0 -66 33.5 -104 q33.5 -38 95.5 -38 q41 0 68 12 q27 12 55 40 l65 -61 q-42 -42 -83.5 -60.5 q-41.5 -18.5 -105.5 -18.5 q-118 0 -175 80 q-52 -80 -163 -80 q-93 0 -151 60 q-34 36 -47 83 q-13 47 -13 117 q0 69 13 116.5 q13 47.5 47 82.5 q58 60 151 60 q112 0 164 -81 q53 81 160 81 q100 0 157.5 -67 q57.5 -67 57.5 -177 l0 -45 ZM706 295 q-1 42 -13 69 q-12 29 -39 46.5 q-27 17.5 -62 17.5 q-73 0 -100 -64 q-13 -29 -14 -69 l228 0 ZM343 115 q35 35 35 139 q0 104 -35 139 q-29 29 -75 29 q-45 0 -74 -29 q-35 -35 -35 -139 q0 -104 35 -139 q30 -30 74 -30 q45 0 75 30 Z" glyph-name="oe" unicode="œ"/><glyph d="M538 203 q0 -97 -71 -153 q-71 -56 -185 -56 q-82 0 -142 21.5 q-60 21.5 -110 72.5 l72 71 q68 -68 182 -68 q70 0 108.5 28.5 q38.5 28.5 38.5 80.5 q0 49 -28 74 q-24 22 -78 30 l-84 12 q-87 12 -135 57 q-52 49 -52 136 q0 94 64 151.5 q64 57.5 174 57.5 q134 0 221 -81 l-69 -68 q-58 55 -155 55 q-61 0 -95.5 -31 q-34.5 -31 -34.5 -80 q0 -42 27 -66 q28 -25 80 -33 l81 -12 q89 -14 133 -53 q58 -51 58 -146 ZM464 942 l-129 -161 l-86 0 l-129 161 l85 0 l87 -97 l87 97 l85 0 Z" glyph-name="Scaron" unicode="Š"/><glyph d="M456 155 q0 -77 -58.5 -119 q-58.5 -42 -152.5 -42 q-139 0 -213 73 l67 67 q52 -53 146 -53 q49 0 80 18 q31 18 31 52 q0 54 -68 60 l-81 7 q-150 13 -150 140 q0 72 54.5 113.5 q54.5 41.5 136.5 41.5 q123 0 188 -57 l-64 -65 q-44 37 -125 37 q-44 0 -68 -18 q-24 -18 -24 -47 q0 -52 70 -58 l80 -7 q151 -13 151 -143 ZM420 760 l-129 -161 l-86 0 l-129 161 l85 0 l87 -97 l87 97 l85 0 Z" glyph-name="scaron" unicode="š"/><glyph d="M539 712 l-213 -419 l0 -293 l-108 0 l0 293 l-213 419 l118 0 l149 -313 l149 313 l118 0 ZM426 786 l-92 0 l0 108 l92 0 l0 -108 ZM210 786 l-92 0 l0 108 l92 0 l0 -108 Z" glyph-name="Ydieresis" unicode="Ÿ"/><glyph d="M504 0 l-456 0 l0 93 l329 522 l-315 0 l0 97 l442 0 l0 -88 l-331 -527 l331 0 l0 -97 ZM453 942 l-129 -161 l-86 0 l-129 161 l85 0 l87 -97 l87 97 l85 0 Z" glyph-name="Zcaron" unicode="Ž"/><glyph d="M421 0 l-378 0 l0 81 l252 335 l-238 0 l0 91 l364 0 l0 -81 l-254 -335 l254 0 l0 -91 ZM411 760 l-129 -161 l-86 0 l-129 161 l85 0 l87 -97 l87 97 l85 0 Z" glyph-name="zcaron" unicode="ž"/><glyph d="M385 630 l-59 0 q-55 0 -66 -59 l-32 -180 l101 0 l0 -78 l-115 0 l-91 -518 l-102 0 l91 518 l-82 0 l0 78 l96 0 l33 185 q11 59 53.5 100 q42.5 41 109.5 41 l63 0 l0 -87 Z" glyph-name="florin" unicode="ƒ"/><glyph d="M422 599 l-85 0 l-87 97 l-87 -97 l-85 0 l129 161 l86 0 l129 -161 Z" glyph-name="circumflex" unicode="ˆ"/><glyph d="M422 760 l-129 -161 l-86 0 l-129 161 l85 0 l87 -97 l87 97 l85 0 Z" glyph-name="caron" unicode="ˇ"/><glyph d="M415 735 q-4 -73 -47.5 -109 q-43.5 -36 -116.5 -36 q-73 0 -117.5 36 q-44.5 36 -48.5 109 l74 0 q4 -34 29 -52.5 q25 -18.5 63 -18.5 q38 0 63 18.5 q25 18.5 29 52.5 l72 0 Z" glyph-name="breve" unicode="˘"/><glyph d="M304 620 l-108 0 l0 91 l108 0 l0 -91 Z" glyph-name="dotaccent" unicode="˙"/><glyph d="M338.5 789.5 q36.5 -36.5 36.5 -88.5 q0 -52 -36.5 -88.5 q-36.5 -36.5 -88.5 -36.5 q-52 0 -88.5 36.5 q-36.5 36.5 -36.5 88.5 q0 52 36.5 88.5 q36.5 36.5 88.5 36.5 q52 0 88.5 -36.5 ZM295 656.5 q19 18.5 19 44.5 q0 26 -19 44.5 q-19 18.5 -45 18.5 q-26 0 -45 -18.5 q-19 -18.5 -19 -44.5 q0 -26 19 -44.5 q19 -18.5 45 -18.5 q26 0 45 18.5 Z" glyph-name="ring" unicode="˚"/><glyph d="M329 -211 l-101 0 l-51 147 l82 0 l70 -147 Z" glyph-name="ogonek" unicode="˛"/><glyph d="M419 667 q-55 -55 -104 -55 q-35 0 -75 23 q-33 19 -56 19 q-28 0 -58 -30 l-48 47 q55 55 104 55 q34 0 75 -24 q32 -19 55 -19 q28 0 59 31 l48 -47 Z" glyph-name="tilde" unicode="˜"/><glyph d="M456 761 l-112 -162 l-76 0 l76 162 l112 0 ZM271 761 l-111 -162 l-77 0 l75 162 l113 0 Z" glyph-name="hungarumlaut" unicode="˝"/><glyph d="M613 0 l-608 0 l261 712 l87 0 l260 -712 ZM472 92 l-161 459 l-162 -459 l323 0 Z" glyph-name="Delta" unicode="Δ"/><glyph d="M579 0 l-207 0 l0 87 q49 23 72 60 q27 41 27 204 q0 109 -8 153 q-8 44 -34 72 q-43 45 -106 45 q-62 0 -105 -45 q-26 -28 -34 -72 q-8 -44 -8 -153 q0 -91 5.5 -136 q5.5 -45 20.5 -68 q23 -37 72 -60 l0 -87 l-207 0 l0 96 l70 0 q-28 26 -45 61 q-25 55 -25 199 q0 54 0.5 77 q0.5 23 3.5 61 q3 38 10.5 58 q7.5 20 20.5 44.5 q13 24.5 34 45.5 q76 76 187 76 q112 0 188 -76 q21 -21 34 -45.5 q13 -24.5 20 -44 q7 -19.5 10 -59 q3 -39.5 3.5 -60 q0.5 -20.5 0.5 -77.5 q0 -146 -24 -199 q-16 -34 -46 -61 l70 0 l0 -96 Z" glyph-name="Omega" unicode="Ω"/><glyph d="M503 0 l-100 0 l0 412 l-214 0 l0 -412 l-101 0 l0 507 l415 0 l0 -507 Z" glyph-name="pi" unicode="π"/><glyph d="M482 230 l-431 0 l0 95 l431 0 l0 -95 Z" glyph-name="endash" unicode="–"/><glyph d="M905 231 l-838 0 l0 97 l838 0 l0 -97 Z" glyph-name="emdash" unicode="—"/><glyph d="M190 608 l-112 0 l0 104 l112 93 l0 -197 Z" glyph-name="quoteleft" unicode="‘"/><glyph d="M190 607 l-112 -91 l0 196 l112 0 l0 -105 Z" glyph-name="quoteright" unicode="’"/><glyph d="M190 0 l-112 -92 l0 197 l112 0 l0 -105 Z" glyph-name="quotesinglbase" unicode="‚"/><glyph d="M381 608 l-112 0 l0 104 l112 93 l0 -197 ZM190 608 l-112 0 l0 104 l112 93 l0 -197 Z" glyph-name="quotedblleft" unicode="“"/><glyph d="M381 607 l-112 -91 l0 196 l112 0 l0 -105 ZM190 607 l-112 -91 l0 196 l112 0 l0 -105 Z" glyph-name="quotedblright" unicode="”"/><glyph d="M381 0 l-112 -92 l0 197 l112 0 l0 -105 ZM190 0 l-112 -92 l0 197 l112 0 l0 -105 Z" glyph-name="quotedblbase" unicode="„"/><glyph d="M526 427 l-180 0 l0 -427 l-102 0 l0 427 l-179 0 l0 91 l179 0 l0 194 l102 0 l0 -194 l180 0 l0 -91 Z" glyph-name="dagger" unicode="†"/><glyph d="M526 -11 l-180 0 l0 -194 l-102 0 l0 194 l-179 0 l0 92 l179 0 l0 346 l-179 0 l0 91 l179 0 l0 194 l102 0 l0 -194 l180 0 l0 -91 l-180 0 l0 -346 l180 0 l0 -92 Z" glyph-name="daggerdbl" unicode="‡"/><glyph d="M371.5 449.5 q47.5 -47.5 47.5 -115.5 q0 -68 -47.5 -115.5 q-47.5 -47.5 -115.5 -47.5 q-68 0 -115.5 47.5 q-47.5 47.5 -47.5 115.5 q0 68 47.5 115.5 q47.5 47.5 115.5 47.5 q68 0 115.5 -47.5 Z" glyph-name="bullet" unicode="•"/><glyph d="M725 0 l-117 0 l0 117 l117 0 l0 -117 ZM460 0 l-117 0 l0 117 l117 0 l0 -117 ZM195 0 l-117 0 l0 117 l117 0 l0 -117 Z" glyph-name="ellipsis" unicode="…"/><glyph d="M784 130 q0 -63 -40 -100 q-40 -37 -100 -37 q-60 0 -100 37 q-40 37 -40 100 l0 101 q0 63 40 100 q40 37 100 37 q60 0 100 -37 q40 -37 40 -100 l0 -101 ZM629 712 l-335 -712 l-82 0 l336 712 l81 0 ZM338 481 q0 -63 -40 -99.5 q-40 -36.5 -100 -36.5 q-60 0 -100 36.5 q-40 36.5 -40 99.5 l0 101 q0 63 40 100 q40 37 100 37 q60 0 100 -37 q40 -37 40 -100 l0 -101 ZM707 133 l0 95 q0 72 -63 72 q-63 0 -63 -72 l0 -95 q0 -72 63 -72 q63 0 63 72 ZM261 484 l0 95 q0 72 -63 72 q-63 0 -63 -72 l0 -95 q0 -71 63 -71 q63 0 63 71 ZM1138 130 q0 -63 -40 -100 q-40 -37 -100 -37 q-60 0 -100 37 q-40 37 -40 100 l0 101 q0 63 40 100 q40 37 100 37 q60 0 100 -37 q40 -37 40 -100 l0 -101 ZM1061 133 l0 95 q0 72 -63 72 q-63 0 -63 -72 l0 -95 q0 -72 63 -72 q63 0 63 72 Z" glyph-name="perthousand" unicode="‰"/><glyph d="M267 42 l-230 230 l230 229 l0 -123 l-107 -106 l107 -107 l0 -123 Z" glyph-name="guilsinglleft" unicode="‹"/><glyph d="M303 272 l-231 -230 l0 123 l108 107 l-108 106 l0 123 l231 -229 Z" glyph-name="guilsinglright" unicode="›"/><glyph d="M307 712 l-335 -712 l-82 0 l335 712 l82 0 Z" glyph-name="fraction" unicode="⁄"/><glyph d="M822 285 l-77 0 l0 279 l-90 -179 l-71 0 l-90 179 l0 -279 l-77 0 l0 427 l77 0 l125 -243 l126 243 l77 0 l0 -427 ZM346 643 l-115 0 l0 -358 l-76 0 l0 358 l-114 0 l0 69 l305 0 l0 -69 Z" glyph-name="trademark" unicode="™"/><glyph d="M468 249 q0 -69 -12 -115 q-12 -46 -45 -81 q-56 -59 -146 -59 q-91 0 -147 59 q-33 35 -45 81 q-12 46 -12 115 q0 70 12 117 q12 47 45 81 q55 57 141 57 q70 0 107 -42 l0 47 q0 49 -29 85.5 q-29 36.5 -90 36.5 q-63 0 -110 -44 l-64 64 q40 37 80 52 q40 15 98 15 q105 0 161 -62 q56 -62 56 -165 l0 -242 ZM334 114 q32 34 32 135 q0 101 -32 135 q-29 29 -69 29 q-41 0 -70 -29 q-32 -34 -32 -135 q0 -101 32 -135 q29 -29 70 -29 q40 0 69 29 Z" glyph-name="partialdiff" unicode="∂"/><glyph d="M598 -205 l-109 0 l0 869 l-288 0 l0 -869 l-108 0 l0 965 l505 0 l0 -965 Z" glyph-name="product" unicode="∏"/><glyph d="M508 -205 l-460 0 l0 88 l195 406 l-193 383 l0 88 l455 0 l0 -97 l-329 0 l161 -325 l0 -100 l-164 -346 l335 0 l0 -97 Z" glyph-name="summation" unicode="∑"/><glyph d="M482 230 l-431 0 l0 95 l431 0 l0 -95 Z" glyph-name="minus" unicode="−"/><glyph d="M550 615 l-91 0 l-202 -615 l-84 0 l-168 507 l111 0 l99 -313 l163 518 l172 0 l0 -97 Z" glyph-name="radical" unicode="√"/><glyph d="M722 401.5 q47 -49.5 47 -125.5 q0 -76 -47 -125 q-47 -49 -128 -49 q-95 0 -179 99 q-85 -100 -179 -100 q-81 0 -128 49.5 q-47 49.5 -47 125.5 q0 76 47 125.5 q47 49.5 128 49.5 q94 0 179 -100 q43 51 85.5 75.5 q42.5 24.5 93.5 24.5 q81 0 128 -49.5 ZM648.5 217 q22.5 22 22.5 57 q0 35 -22.5 56.5 q-22.5 21.5 -56.5 21.5 q-28 0 -51 -18.5 q-23 -18.5 -58 -59.5 q24 -29 37 -42 q13 -13 32.5 -25 q19.5 -12 39.5 -12 q34 0 56.5 22 ZM347 274 q-23 28 -37 42 q-14 14 -33.5 25.5 q-19.5 11.5 -39.5 11.5 q-34 0 -56 -22 q-22 -22 -22 -57 q0 -35 22 -57 q22 -22 56 -22 q28 0 51.5 19 q23.5 19 58.5 60 Z" glyph-name="infinity" unicode="∞"/><glyph d="M385 633 l-44 0 q-72 0 -72 -74 l0 -599 q0 -75 -44.5 -118.5 q-44.5 -43.5 -119.5 -43.5 l-57 0 l0 87 l44 0 q71 0 71 74 l0 599 q0 75 44.5 118.5 q44.5 43.5 120.5 43.5 l57 0 l0 -87 Z" glyph-name="integral" unicode="∫"/><glyph d="M531 380 q-44 -44 -76 -60.5 q-32 -16.5 -72 -16.5 q-46 0 -112 32 q-48 24 -79 24 q-23 0 -40.5 -8 q-17.5 -8 -44.5 -35 l-64 64 q44 44 75.5 60.5 q31.5 16.5 71.5 16.5 q45 0 111 -32 q48 -24 80 -24 q23 0 40.5 8 q17.5 8 44.5 35 l65 -64 ZM531 178 q-44 -44 -75.5 -61 q-31.5 -17 -71.5 -17 q-44 0 -112 33 q-48 24 -79 24 q-23 0 -41 -8.5 q-18 -8.5 -45 -35.5 l-64 64 q44 44 76 61 q32 17 72 17 q43 0 111 -33 q48 -24 80 -24 q23 0 40.5 8.5 q17.5 8.5 44.5 35.5 l64 -64 Z" glyph-name="approxequal" unicode="≈"/><glyph d="M520 133 l-303 0 l-103 -120 l-63 51 l61 69 l-61 0 l0 95 l138 0 l88 99 l-226 0 l0 95 l302 0 l104 120 l63 -51 l-61 -69 l61 0 l0 -95 l-138 0 l-88 -99 l226 0 l0 -95 Z" glyph-name="notequal" unicode="­≠"/><glyph d="M873 -14 l-68 -69 l-526 527 l0 -487 l-92 92 l0 554 l555 0 l92 -92 l-487 1 l526 -526 Z" glyph-name="lessequal" unicode="≤"/><glyph d="M839 49 l-92 -92 l1 487 l-526 -527 l-69 69 l527 527 l-487 -2 l92 92 l554 0 l0 -554 Z" glyph-name="greaterequal" unicode="≥"/><glyph d="M582 346 l-261 -365 l-260 365 l260 365 l261 -365 ZM467 346 l-146 207 l-146 -207 l146 -208 l146 208 Z" glyph-name="lozenge" unicode="◊"/><glyph d="M505 624 l-109 0 l0 91 l109 0 l0 -91 ZM501 0 l-102 0 l0 498 l102 0 l0 -498 ZM297 420 l-100 0 l0 -420 l-102 0 l0 420 l-58 0 l0 78 l58 0 l0 78 q0 59 36 100 q36 41 103 41 l63 0 l0 -87 l-45 0 q-55 0 -55 -59 l0 -73 l100 0 l0 -78 Z" glyph-name="fi" unicode="ﬁ"/><glyph d="M599 0 l-63 0 q-69 0 -104 39.5 q-35 39.5 -35 100.5 l0 572 l102 0 l0 -566 q0 -30 12.5 -44.5 q12.5 -14.5 42.5 -14.5 l45 0 l0 -87 ZM297 420 l-100 0 l0 -420 l-102 0 l0 420 l-58 0 l0 78 l58 0 l0 78 q0 59 36 100 q36 41 103 41 l63 0 l0 -87 l-45 0 q-55 0 -55 -59 l0 -73 l100 0 l0 -78 Z" glyph-name="fl" unicode="ﬂ"/></font>
</defs>
</svg>
